<?xml version="1.0" encoding="UTF-8" standalone="no"?>
<!DOCTYPE svg PUBLIC "-//W3C//DTD SVG 1.1//EN" "http://www.w3.org/Graphics/SVG/1.1/DTD/svg11.dtd">
<svg xmlns="http://www.w3.org/2000/svg" xmlns:xlink="http://www.w3.org/1999/xlink" version="1.1">
<metadata>
Created by FontForge 20170910 at Fri Feb 12 04:21:14 2016
 By Jimmy Wärting
Copyright (c) 2015 by www.fontiran.com (Moslem Ebrahimi). All rights reserved.
</metadata>
<defs>
<font id="IRANSansWebFaNum-Light" horiz-adv-x="0">
  <font-face font-family="IRANSansWeb(FaNum) Light" font-weight="300" font-stretch="normal" units-per-em="2300" panose-1="2 4 5 3 5 2 1 2 2 3" ascent="1840" descent="-460" x-height="1201" cap-height="1654" bbox="-1183 -1249 4424 2406" underline-thickness="100" underline-position="-650" unicode-range="U+0020-FEFC"/>
<missing-glyph horiz-adv-x="1229" d="M102 -362v1806h1024v-1806h-1024zM217 -248h795v1577h-795v-1577z"/>
    <glyph glyph-name="uniFEFB" unicode="ﻟﺎ" horiz-adv-x="1187" arabic-form="isolated" d="M1105 589q1 -8 1 -15v-14q0 -55 -11.5 -116t-33.5 -119t-52.5 -109t-69.5 -86q-64 -59 -151 -101t-190 -66l1 1q-110 -23 -215 -23q-65 0 -128 9q8 43 14.5 78.5t13.5 75.5q23 -4 47 -5t51 -1q45 0 96 6t105 18q-21 112 -63 231t-95 234.5t-111.5 222t-111 193t-93 148.5 t-58.5 88l130 91q13 -19 37.5 -55.5t56.5 -87.5t70 -113.5t78 -132.5q119 -211 196 -402.5t114 -363.5q47 30 88 78.5t71 104.5t45 114t11 107q-25 229 -50.5 455t-50.5 455q44 4 79.5 8t78.5 8q3 -19 9.5 -66.5t15.5 -115.5t19.5 -153t20.5 -180.5t19 -197t16 -202.5v-1z "/>
    <glyph glyph-name="uniFEFC" unicode="ﻠﺎ" horiz-adv-x="1461" arabic-form="final" d="M1317 214q35 -20 65.5 -27t41.5 -9q1 0 3.5 -0.5t3.5 -0.5l30 -1h9q32 0 55.5 -23t23.5 -55q0 -33 -23.5 -55.5t-55.5 -22.5h-49q-11 0 -42.5 3.5t-73.5 20.5t-88.5 53.5t-86.5 101.5q-83 -92 -181.5 -146.5t-222.5 -84.5l1 1q-110 -23 -215 -23q-65 0 -128 9 q8 43 14.5 78.5t13.5 75.5q23 -4 47 -5t51 -1q45 0 96 6t105 18q-21 114 -64 234t-96.5 236t-112 222.5t-110.5 192.5t-92 146.5t-56 84.5l129 92q13 -19 37.5 -55.5t56.5 -87.5t70 -113.5t78 -132.5q119 -212 196 -402.5t114 -361.5q43 24 80 55t64 67.5t42 77t15 84.5 q0 8 -0.5 15.5t-1.5 15.5v-1q-6 91 -13.5 189t-15.5 194t-16 187t-15.5 168.5t-13.5 137.5t-9 96l-3 24l158 17q0 -2 5.5 -53t13.5 -136.5t18 -197t20 -233.5t19 -246.5t16 -236.5q3 -33 7.5 -61t14.5 -51.5t27 -43t44 -35.5v-1z"/>
    <glyph glyph-name="uniFEF7" unicode="ﻟﺄ" horiz-adv-x="1247" arabic-form="isolated" d="M1105 589q1 -8 1 -15v-14q0 -55 -11.5 -116t-33.5 -119t-52.5 -109t-69.5 -86q-64 -59 -151 -101t-190 -66l1 1q-110 -23 -215 -23q-65 0 -128 9q8 43 14.5 78.5t13.5 75.5q23 -4 47 -5t51 -1q45 0 96 6t105 18q-21 112 -63 231t-95 234.5t-111.5 222t-111 193t-93 148.5 t-58.5 88l130 91q13 -19 37.5 -55.5t56.5 -87.5t70 -113.5t78 -132.5q119 -211 196 -402.5t114 -363.5q47 30 88 78.5t71 104.5t45 114t11 107q-25 229 -50.5 455t-50.5 455q44 4 79.5 8t78.5 8q3 -19 9.5 -66.5t15.5 -115.5t19.5 -153t20.5 -180.5t19 -197t16 -202.5v-1z M281 1853q-15 2 -32 5q-15 3 -31 4.5t-32 1.5q-18 0 -36 -3t-37 -12h1q-39 -15 -63 -49.5t-24 -73.5q0 -9 2 -21t8 -24q8 -20 23.5 -37.5t35.5 -31t43.5 -21t49.5 -7.5q12 0 24 1.5t27 7.5l-1 -1q24 7 47.5 18.5t43.5 23t35.5 21.5t22.5 16l53 -69q-42 -29 -106 -65 t-154 -86l-244 -135q-12 22 -21 39t-21 38l210 117q-53 23 -92.5 59.5t-58.5 77.5q-14 36 -14 79q0 33 10 64.5t29 58t44.5 48t57.5 34.5q51 20 105 20q39 0 72.5 -6.5t48.5 -11.5z"/>
    <glyph glyph-name="uniFEF8" unicode="ﻠﺄ" horiz-adv-x="1470" arabic-form="final" d="M1317 214q35 -20 65.5 -27t41.5 -9q1 0 3.5 -0.5t3.5 -0.5l30 -1h9q32 0 55.5 -23t23.5 -55q0 -33 -23.5 -55.5t-55.5 -22.5h-49q-11 0 -42.5 3.5t-73.5 20.5t-88.5 53.5t-86.5 101.5q-83 -92 -181.5 -146.5t-222.5 -84.5l1 1q-110 -23 -215 -23q-65 0 -128 9 q8 43 14.5 78.5t13.5 75.5q23 -4 47 -5t51 -1q45 0 96 6t105 18q-21 114 -64 234t-96.5 236t-112 222.5t-110.5 192.5t-92 146.5t-56 84.5l129 92q13 -19 37.5 -55.5t56.5 -87.5t70 -113.5t78 -132.5q119 -212 196 -402.5t114 -361.5q43 24 80 55t64 67.5t42 77t15 84.5 q0 8 -0.5 15.5t-1.5 15.5v-1q-6 91 -13.5 189t-15.5 194t-16 187t-15.5 168.5t-13.5 137.5t-9 96l-3 24l158 17q0 -2 5.5 -53t13.5 -136.5t18 -197t20 -233.5t19 -246.5t16 -236.5q3 -33 7.5 -61t14.5 -51.5t27 -43t44 -35.5v-1zM379 1884q-15 2 -32 5q-15 3 -31 4.5 t-32 1.5q-18 0 -36 -3t-37 -12h1q-39 -15 -63 -49.5t-24 -73.5q0 -9 2 -21t8 -24q8 -20 23.5 -37.5t35.5 -31t43.5 -21t49.5 -7.5q12 0 24 1.5t27 7.5l-1 -1q24 7 47.5 18.5t43.5 23t35.5 21.5t22.5 16l53 -69q-42 -29 -106 -65t-154 -86l-244 -135q-12 22 -21 39t-21 38 l210 117q-53 23 -92.5 59.5t-58.5 77.5q-14 36 -14 79q0 33 10 64.5t29 58t44.5 48t57.5 34.5q51 20 105 20q39 0 72.5 -6.5t48.5 -11.5z"/>
    <glyph glyph-name="uniFEF9" unicode="ﻟﺈ" horiz-adv-x="1247" arabic-form="isolated" d="M1105 589q1 -8 1 -15v-14q0 -55 -11.5 -116t-33.5 -119t-52.5 -109t-69.5 -86q-64 -59 -151 -101t-190 -66l1 1q-110 -23 -215 -23q-65 0 -128 9q8 43 14.5 78.5t13.5 75.5q23 -4 47 -5t51 -1q45 0 96 6t105 18q-21 112 -63 231t-95 234.5t-111.5 222t-111 193t-93 148.5 t-58.5 88l130 91q13 -19 37.5 -55.5t56.5 -87.5t70 -113.5t78 -132.5q119 -211 196 -402.5t114 -363.5q47 30 88 78.5t71 104.5t45 114t11 107q-25 229 -50.5 455t-50.5 455q44 4 79.5 8t78.5 8q3 -19 9.5 -66.5t15.5 -115.5t19.5 -153t20.5 -180.5t19 -197t16 -202.5v-1z M782 -258q-15 2 -32 5q-15 3 -31 4.5t-32 1.5q-18 0 -36 -3t-37 -12h1q-39 -15 -63 -49.5t-24 -73.5q0 -9 2 -21t8 -24q8 -20 23.5 -37.5t35.5 -31t43.5 -21t49.5 -7.5q12 0 24 1.5t27 7.5l-1 -1q24 7 47.5 18.5t43.5 23t35.5 21.5t22.5 16l53 -69q-42 -29 -106 -65 t-154 -86l-244 -135q-12 22 -21 39t-21 38l210 117q-53 23 -92.5 59.5t-58.5 77.5q-14 36 -14 79q0 33 10 64.5t29 58t44.5 48t57.5 34.5q51 20 105 20q39 0 72.5 -6.5t48.5 -11.5z"/>
    <glyph glyph-name="uniFEFA" unicode="ﻠﺈ" horiz-adv-x="1470" arabic-form="final" d="M1317 214q35 -20 65.5 -27t41.5 -9q1 0 3.5 -0.5t3.5 -0.5l30 -1h9q32 0 55.5 -23t23.5 -55q0 -33 -23.5 -55.5t-55.5 -22.5h-49q-11 0 -42.5 3.5t-73.5 20.5t-88.5 53.5t-86.5 101.5q-83 -92 -181.5 -146.5t-222.5 -84.5l1 1q-110 -23 -215 -23q-65 0 -128 9 q8 43 14.5 78.5t13.5 75.5q23 -4 47 -5t51 -1q45 0 96 6t105 18q-21 114 -64 234t-96.5 236t-112 222.5t-110.5 192.5t-92 146.5t-56 84.5l129 92q13 -19 37.5 -55.5t56.5 -87.5t70 -113.5t78 -132.5q119 -212 196 -402.5t114 -361.5q43 24 80 55t64 67.5t42 77t15 84.5 q0 8 -0.5 15.5t-1.5 15.5v-1q-6 91 -13.5 189t-15.5 194t-16 187t-15.5 168.5t-13.5 137.5t-9 96l-3 24l158 17q0 -2 5.5 -53t13.5 -136.5t18 -197t20 -233.5t19 -246.5t16 -236.5q3 -33 7.5 -61t14.5 -51.5t27 -43t44 -35.5v-1zM934 -216q-15 2 -32 5q-15 3 -31 4.5 t-32 1.5q-18 0 -36 -3t-37 -12h1q-39 -15 -63 -49.5t-24 -73.5q0 -9 2 -21t8 -24q8 -20 23.5 -37.5t35.5 -31t43.5 -21t49.5 -7.5q12 0 24 1.5t27 7.5l-1 -1q24 7 47.5 18.5t43.5 23t35.5 21.5t22.5 16l53 -69q-42 -29 -106 -65t-154 -86l-244 -135q-12 22 -21 39t-21 38 l210 117q-53 23 -92.5 59.5t-58.5 77.5q-14 36 -14 79q0 33 10 64.5t29 58t44.5 48t57.5 34.5q51 20 105 20q39 0 72.5 -6.5t48.5 -11.5z"/>
    <glyph glyph-name="uniFEF5" unicode="ﻟﺂ" horiz-adv-x="1350" arabic-form="isolated" d="M1207 589q1 -8 1 -15v-14q0 -55 -11.5 -116t-33.5 -119t-52.5 -109t-69.5 -86q-64 -59 -151 -101t-190 -66l1 1q-110 -23 -215 -23q-65 0 -128 9q8 43 14.5 78.5t13.5 75.5q23 -4 47 -5t51 -1q45 0 96 6t105 18q-21 112 -63 231t-95 234.5t-111.5 222t-111 193t-93 148.5 t-58.5 88l130 91q13 -19 37.5 -55.5t56.5 -87.5t70 -113.5t78 -132.5q119 -211 196 -402.5t114 -363.5q47 30 88 78.5t71 104.5t45 114t11 107q-25 229 -50.5 455t-50.5 455q44 4 79.5 8t78.5 8q3 -19 9.5 -66.5t15.5 -115.5t19.5 -153t20.5 -180.5t19 -197t16 -202.5v-1z M6 1365q5 14 15.5 42t24.5 51h-1q30 48 70.5 77.5t84.5 37.5q10 2 21.5 2.5t19.5 0.5q42 0 77 -10.5t65 -23.5q29 -11 56 -19.5t59 -9.5q24 -1 46.5 9.5t42 25.5t34 31t22.5 26q28 -17 49.5 -32t48.5 -32q-5 -9 -25 -34t-52.5 -50.5t-75.5 -45.5t-95 -18q-40 1 -74 11 t-63 20h1l-16 6q-33 13 -62 21t-61 3h1q-19 -2 -35.5 -16.5t-29 -33.5t-22 -39t-14.5 -35z"/>
    <glyph glyph-name="uniFEF6" unicode="ﻠﺂ" horiz-adv-x="1470" arabic-form="final" d="M1317 214q35 -20 65.5 -27t41.5 -9q1 0 3.5 -0.5t3.5 -0.5l30 -1h9q32 0 55.5 -23t23.5 -55q0 -33 -23.5 -55.5t-55.5 -22.5h-49q-11 0 -42.5 3.5t-73.5 20.5t-88.5 53.5t-86.5 101.5q-83 -92 -181.5 -146.5t-222.5 -84.5l1 1q-110 -23 -215 -23q-65 0 -128 9 q8 43 14.5 78.5t13.5 75.5q23 -4 47 -5t51 -1q45 0 96 6t105 18q-21 114 -64 234t-96.5 236t-112 222.5t-110.5 192.5t-92 146.5t-56 84.5l129 92q13 -19 37.5 -55.5t56.5 -87.5t70 -113.5t78 -132.5q119 -212 196 -402.5t114 -361.5q43 24 80 55t64 67.5t42 77t15 84.5 q0 8 -0.5 15.5t-1.5 15.5v-1q-6 91 -13.5 189t-15.5 194t-16 187t-15.5 168.5t-13.5 137.5t-9 96l-3 24l158 17q0 -2 5.5 -53t13.5 -136.5t18 -197t20 -233.5t19 -246.5t16 -236.5q3 -33 7.5 -61t14.5 -51.5t27 -43t44 -35.5v-1zM40 1364q5 14 15.5 42t24.5 51h-1 q30 48 70.5 77.5t84.5 37.5q10 2 21.5 2.5t19.5 0.5q42 0 77 -10.5t65 -23.5q29 -11 56 -19.5t59 -9.5q24 -1 46.5 9.5t42 25.5t34 31t22.5 26q28 -17 49.5 -32t48.5 -32q-5 -9 -25 -34t-52.5 -50.5t-75.5 -45.5t-95 -18q-40 1 -74 11t-63 20h1l-16 6q-33 13 -62 21t-61 3h1 q-19 -2 -35.5 -16.5t-29 -33.5t-22 -39t-14.5 -35z"/>
    <glyph glyph-name="uni06440671.isol" unicode="ﻟﭑ" horiz-adv-x="1247" d="M1105 589q1 -8 1 -15v-14q0 -55 -11.5 -116t-33.5 -119t-52.5 -109t-69.5 -86q-64 -59 -151 -101t-190 -66l1 1q-110 -23 -215 -23q-65 0 -128 9q8 43 14.5 78.5t13.5 75.5q23 -4 47 -5t51 -1q45 0 96 6t105 18q-21 112 -63 231t-95 234.5t-111.5 222t-111 193t-93 148.5 t-58.5 88l130 91q13 -19 37.5 -55.5t56.5 -87.5t70 -113.5t78 -132.5q119 -211 196 -402.5t114 -363.5q47 30 88 78.5t71 104.5t45 114t11 107q-25 229 -50.5 455t-50.5 455q44 4 79.5 8t78.5 8q3 -19 9.5 -66.5t15.5 -115.5t19.5 -153t20.5 -180.5t19 -197t16 -202.5v-1z M443 1446q27 -3 61 -3.5t68.5 3.5t66.5 13.5t53 27.5q26 23 29 57q0 14 -6.5 25t-11.5 16q-20 21 -42 23.5t-40 -0.5q-27 -5 -53.5 -18.5t-49.5 -36.5q-29 -29 -48 -59.5t-27 -47.5zM169 1477q26 13 52 22q22 8 45.5 13t40.5 1t30.5 -10.5t23.5 -14.5q11 -9 19 -19 q10 19 33 57t61 75q29 28 64 46.5t71 23.5q42 9 78.5 -1.5t62.5 -38.5q19 -20 28.5 -43t6.5 -49q-2 -62 -53 -104q-22 -18 -49.5 -29t-57 -17.5t-60 -9t-57.5 -2.5q-29 0 -52 2t-33 3q-25 3 -49 14q-14 6 -26.5 15.5t-26.5 28.5q-16 12 -39 9t-44 -12q-25 -11 -51 -28z"/>
    <glyph glyph-name="uni06440671.fina" unicode="ﻠﭑ" horiz-adv-x="1470" d="M1317 214q35 -20 65.5 -27t41.5 -9q1 0 3.5 -0.5t3.5 -0.5l30 -1h9q32 0 55.5 -23t23.5 -55q0 -33 -23.5 -55.5t-55.5 -22.5h-49q-11 0 -42.5 3.5t-73.5 20.5t-88.5 53.5t-86.5 101.5q-83 -92 -181.5 -146.5t-222.5 -84.5l1 1q-110 -23 -215 -23q-65 0 -128 9 q8 43 14.5 78.5t13.5 75.5q23 -4 47 -5t51 -1q45 0 96 6t105 18q-21 114 -64 234t-96.5 236t-112 222.5t-110.5 192.5t-92 146.5t-56 84.5l129 92q13 -19 37.5 -55.5t56.5 -87.5t70 -113.5t78 -132.5q119 -212 196 -402.5t114 -361.5q43 24 80 55t64 67.5t42 77t15 84.5 q0 8 -0.5 15.5t-1.5 15.5v-1q-6 91 -13.5 189t-15.5 194t-16 187t-15.5 168.5t-13.5 137.5t-9 96l-3 24l158 17q0 -2 5.5 -53t13.5 -136.5t18 -197t20 -233.5t19 -246.5t16 -236.5q3 -33 7.5 -61t14.5 -51.5t27 -43t44 -35.5v-1zM570 1422q27 -3 61 -3.5t68.5 3.5t66.5 13.5 t53 27.5q26 23 29 57q0 14 -6.5 25t-11.5 16q-20 21 -42 23.5t-40 -0.5q-27 -5 -53.5 -18.5t-49.5 -36.5q-29 -29 -48 -59.5t-27 -47.5zM296 1453q26 13 52 22q22 8 45.5 13t40.5 1t30.5 -10.5t23.5 -14.5q11 -9 19 -19q10 19 33 57t61 75q29 28 64 46.5t71 23.5 q42 9 78.5 -1.5t62.5 -38.5q19 -20 28.5 -43t6.5 -49q-2 -62 -53 -104q-22 -18 -49.5 -29t-57 -17.5t-60 -9t-57.5 -2.5q-29 0 -52 2t-33 3q-25 3 -49 14q-14 6 -26.5 15.5t-26.5 28.5q-16 12 -39 9t-44 -12q-25 -11 -51 -28z"/>
    <glyph glyph-name="uniFDF2" unicode="ﻟﻠّﻪ" horiz-adv-x="2000" arabic-form="isolated" d="M1079 17q-14 -2 -30 -2t-32 2h-10l-17 3q-50 8 -80 29q-77 37 -131 125q-69 -10 -125.5 -15t-104.5 -5q-248 0 -343 118q-28 33 -39 70t-11 72q0 29 6 54.5t14 42.5v1q27 54 64.5 100t80 84t88 68t88.5 53t81.5 40t67.5 28l-14 152q-1 5 -1.5 8t-0.5 7q44 4 79.5 7.5 t77.5 7.5q27 -318 53 -507.5t49 -251.5q25 -66 60.5 -100.5t77.5 -36.5q18 -1 35 -1h32h27.5t24.5 1q51 3 85.5 30t51.5 66l-1 -2q7 13 7 70q0 42 -2.5 108t-8 159.5t-13 218.5t-17.5 286l158 17q5 -76 10 -135t9.5 -109.5t8.5 -96.5t7 -95l19.5 -273t6.5 -93q0 -20 6 -51 t36 -66q16 -17 36.5 -27t45.5 -11q68 -2 115.5 9.5t69.5 43.5l-1 -2q21 26 26.5 58t5.5 64q0 7 -18 228t-55 658q43 9 78 17.5t76 17.5q34 -450 51 -698t16 -288q-1 -38 -17 -80.5t-48 -89.5q-61 -88 -250 -84q-8 -2 -14 -2h-13q-16 0 -33 2.5t-35 8.5q-10 1 -18 3t-15 4 q-32 14 -60.5 31.5t-54.5 41.5l-26 -19l-27 -21q-54 -34 -112.5 -43.5t-108.5 -9.5h-44zM673 721q-50 -19 -101.5 -44.5t-99 -59.5t-87 -76t-65.5 -94q-2 -5 -3.5 -14t-1 -20t3.5 -22.5t12 -21.5q10 -11 36.5 -26.5t76.5 -23.5q24 -3 52 -5t60 -2q61 0 168 12 q-6 29 -11.5 70.5t-12 92.5t-13.5 110.5t-14 123.5zM1200 1268q-46 0 -79 36v-1q-18 25 -26.5 61t-6.5 87q1 25 3.5 45.5t4.5 30.5q17 -3 30.5 -7t28.5 -7q-1 -12 -2 -23q-1 -10 -2 -21t-1 -21v-1q-2 -36 3.5 -63t15.5 -41q5 -5 11 -9t20 -4q15 0 28.5 8.5t24.5 22t19 30.5 t14 33q12 35 16.5 61.5t6.5 37.5q17 -1 32.5 -0.5t31.5 -0.5q0 -16 3 -33q2 -14 5.5 -31.5t8.5 -34.5q4 -14 10.5 -30t15.5 -29.5t20 -22t25 -8.5q20 0 34 10q6 8 14.5 28.5t8.5 65.5q0 21 -5.5 44t-13 45t-16 40.5t-15.5 30.5l53 30q5 -9 15 -28.5t19.5 -45.5t17 -56 t7.5 -60q0 -94 -43 -137q-22 -22 -44.5 -25.5t-31.5 -3.5q-26 0 -49.5 13t-41.5 34q-7 9 -15 24.5t-19 41.5q-17 -36 -35 -58.5t-35.5 -35t-34 -17.5t-31.5 -5zM1278 1662q8 32 12 67t4 69q0 35 -4 70.5t-12 66.5l60 17q7 -30 11 -65t4 -75q0 -38 -3.5 -78t-13.5 -88z"/>
    <glyph glyph-name="uniFDFC" unicode="رﻳﺎل" horiz-adv-x="3142" arabic-form="isolated" d="M1243 492q1 -38 3 -78.5t3.5 -96.5t3.5 -134.5t5 -191.5q0 -68 -7.5 -134.5t-30.5 -131.5q-32 -89 -92.5 -159t-139 -118.5t-170 -74t-184.5 -25.5q-88 0 -171.5 23.5t-153.5 71.5q-53 38 -97 85t-75.5 101t-49.5 114t-18 125q0 63 5.5 125.5t19 122.5t37.5 117.5 t62 110.5q16 -14 30 -26t27.5 -23.5t27.5 -23t30 -24.5q-26 -39 -43 -80t-27 -84t-13.5 -88.5t-3.5 -93.5q0 -40 3 -76q6 -65 35 -118.5t74.5 -94t103 -67.5t119.5 -38q17 -3 36.5 -5t40.5 -2q51 0 102.5 11t99.5 31.5t90.5 50t75.5 66.5q34 39 54.5 80.5t31.5 85t14.5 89 t3.5 92.5q0 68 -1.5 150t-4 171t-6 180t-7 176t-7 160t-6.5 132l-19 447q3 0 8 0.5t20.5 1.5t45.5 3.5t83 6.5l14 -352q2 -57 2.5 -114t3.5 -114q2 -34 3.5 -69t2.5 -77.5t2.5 -95t3.5 -120.5zM2408 489q5 -28 7.5 -55t2.5 -53q0 -71 -25 -141.5t-77 -124.5 q-36 -32 -80.5 -52.5t-93.5 -32.5t-99.5 -16.5t-98.5 -4.5q-19 0 -37.5 -0.5t-38.5 1.5q-61 4 -118 21t-102 48.5t-75.5 79.5t-38.5 114v-1q-5 45 -3.5 91t1.5 100q1 53 3.5 105t2.5 105v71.5t-0.5 47.5t-0.5 31v23q0 42 -3 99.5t-7.5 120t-9.5 123.5t-10.5 109t-10 77.5 t-7.5 29.5l160 30q8 -100 16 -189t14 -172.5t10.5 -164.5t5 -165.5t-3 -175t-12.5 -193.5q0 -33 4.5 -65t16.5 -59t34 -47t57 -30q7 -5 22.5 -7t34 -2.5t38.5 -0.5t35 -3q51 0 110 3.5t110 21.5t86 56.5t39 109.5q3 56 -7 114t-27.5 114.5t-41 111t-47.5 104.5q2 4 7.5 7 t19.5 8.5t40 15.5t70 30q19 -38 39 -83.5t37.5 -94t31 -97.5t20.5 -93zM2812 226q-8 44 -19 91.5t-23.5 95.5t-27 94.5t-28.5 88.5l147 45q17 -62 37 -123.5t37.5 -124.5t29 -128.5t11.5 -135.5q0 -17 -1 -33.5t-3 -33.5q-9 -80 -38.5 -153t-74.5 -138.5t-103 -124 t-123 -109t-134.5 -93.5t-137.5 -78l-2 4l-64 134q60 30 118.5 66.5t113.5 79t104 91t90 102.5q48 69 73 141.5t25 148.5q0 23 -2 46.5t-5 46.5zM1942 -275l-141 -141l-143 142l141 142zM2285 -277l-140 -141l-143 143l141 141z"/>
    <glyph glyph-name="tooman" unicode="ﺗﻮﻣﺎن" horiz-adv-x="4519" d="M3736 98q0 33 23 55.5t55 22.5h103q11 0 22.5 -0.5t22.5 -0.5q48 0 92.5 5t82 19t66.5 40t48 67v-1q16 33 16 88q0 94 -44 235q-8 25 -19.5 54t-22.5 56.5t-21.5 50.5t-16.5 37l142 71q6 -14 16 -36t22 -51t24.5 -63t24.5 -71q26 -81 39 -151t13 -130q0 -88 -28 -153 q-35 -73 -95.5 -125.5t-144.5 -75.5q-52 -15 -101.5 -18t-94.5 -3h-146q-32 0 -55 22.5t-23 55.5zM4028 1221l-146 -146l-148 147l146 147zM4383 1219l-145 -146l-148 148l146 146zM3092 -525q152 33 273.5 92t208.5 132.5t138 156.5t63 164h-77q-37 0 -77.5 1t-79.5 4 q-207 14 -306 135v-1q-32 41 -46.5 92t-14.5 108q0 46 9.5 93.5t25 93.5t37 87t45.5 74q46 57 103 88.5t115 31.5q133 0 246 -122v1q41 -46 74 -105t56.5 -127.5t37.5 -144t16 -153.5h94q33 0 56.5 -22.5t23.5 -56.5q0 -32 -23.5 -54.5t-56.5 -22.5h-107 q-29 -146 -105 -264.5t-183 -207t-238 -146t-271 -81.5zM3509 670q-37 0 -73 -30.5t-64.5 -76t-46.5 -99.5t-18 -102q0 -33 10 -60t25 -46v1q17 -22 44.5 -36t57.5 -22.5t58.5 -12.5t48.5 -5q56 -3 117.5 -3t112.5 5q-3 70 -16 132.5t-32.5 115.5t-44 95.5t-51.5 72.5 q-11 12 -25 24.5t-30.5 23t-34.5 17t-38 6.5zM1905 98q0 32 23 54t55 24h-1q88 0 149.5 28.5t106.5 75.5t78.5 107.5t65.5 124.5q26 54 51.5 102.5t57.5 86.5q86 103 203 103q142 0 236 -114q37 -45 60 -104.5t32 -125t2.5 -131t-28.5 -120.5q-27 -66 -72 -110.5t-102 -59.5 q-35 -9 -76 -9q-75 0 -165 36q-97 39 -212 123q-7 -7 -12 -11.5t-7 -6.5q-148 -151 -367 -151q-33 0 -55.5 23t-22.5 55zM2460 319q43 -32 87.5 -56.5t86 -41.5t78 -26t62.5 -9q10 0 19.5 1t19.5 4h-1q29 11 48 48t25 85.5t-1.5 103t-30.5 101.5t-62.5 79.5t-96.5 37.5 q-25 2 -45 -10t-39.5 -37.5t-40.5 -64.5t-47 -91zM1972 20q-106 0 -181 24.5t-126 75.5q-31 31 -47.5 67t-24 71t-8.5 67t-1 55q1 30 2.5 105t1.5 180q0 59 -0.5 128.5t-2 139t-4 144.5t-6 139t-8.5 118.5t-12 97.5l156 28q8 -47 13.5 -105t9 -126t6 -147t3.5 -152.5 t1.5 -147.5t0.5 -137q0 -77 -0.5 -140.5t-1.5 -126.5q-1 -48 4 -84.5t32 -62.5q25 -25 71 -39.5t113 -15.5h9q32 0 55.5 -23t23.5 -55q0 -33 -23.5 -55.5t-55.5 -22.5zM741 -460q-149 3 -267.5 45t-201.5 120t-127 191.5t-44 259.5q0 77 13.5 156.5t36 154.5t52 142 t61.5 120l128 -94q-18 -28 -41 -79t-43 -116t-34 -140t-14 -150q0 -46 7.5 -97t27.5 -100t54.5 -94t88.5 -79.5t129 -56t177 -24.5q137 -4 243 31.5t178 103t109.5 163.5t37.5 215q0 88 -17.5 169t-42 149t-50.5 119t-43 78l139 89q9 -14 25 -43.5t35.5 -71.5t39.5 -95 t36 -115t26.5 -131t10.5 -143q0 -159 -54 -286.5t-151 -216t-231 -134.5t-294 -40zM933 785l-147 -147l-148 148l147 147z"/>
    <glyph glyph-name="yeye" unicode="ﻴﻴ" horiz-adv-x="1756" d="M-81 98q0 33 22.5 55.5t55.5 22.5h76q88 0 169 9t142.5 35t96.5 74.5t32 127.5q-1 27 -3 51.5t-6.5 51t-11 56.5t-16.5 68q42 11 75.5 21.5t73.5 21.5q12 -43 19 -79t11.5 -69.5t8 -67t8.5 -72.5q5 -42 12.5 -82.5t26 -73t52.5 -52.5t92 -20q33 0 56.5 -22.5t23.5 -55.5 t-23 -55.5t-55 -22.5q-48 0 -88 10.5t-73.5 29t-61.5 43.5t-50 55q-39 -38 -97 -64t-126.5 -42.5t-142.5 -24t-145 -7.5h-76q-33 0 -55.5 22.5t-22.5 55.5zM810 98q0 33 22.5 55.5t55.5 22.5h76q88 0 169 9t142.5 35t96.5 74.5t32 127.5q-1 27 -3 51.5t-6.5 51t-11 56.5 t-16.5 68q42 11 75.5 21.5t73.5 21.5q12 -43 19 -79t11.5 -69.5t8 -67t8.5 -72.5q5 -42 12.5 -82.5t26 -73t52.5 -52.5t92 -20q33 0 56.5 -22.5t23.5 -55.5t-23 -55.5t-55 -22.5q-48 0 -88 10.5t-73.5 29t-61.5 43.5t-50 55q-39 -38 -97 -64t-126.5 -42.5t-142.5 -24 t-145 -7.5h-76q-33 0 -55.5 22.5t-22.5 55.5zM357 -473l-148 -148l-150 149l148 149zM751 -474l-148 -149l-150 150l148 148zM1247 -343l-148 -148l-150 149l148 149zM1641 -344l-148 -149l-150 150l148 148z"/>
    <glyph glyph-name="yeye1" unicode="ﻳﻴ" horiz-adv-x="1717" d="M-81 98q0 33 22.5 55.5t55.5 22.5h76q88 0 169 9t142.5 35t96.5 74.5t32 127.5q-1 27 -3 51.5t-6.5 51t-11 56.5t-16.5 68q42 11 75.5 21.5t73.5 21.5q12 -43 19 -79t11.5 -69.5t8 -67t8.5 -72.5q5 -42 12.5 -82.5t26 -73t52.5 -52.5t92 -20q33 0 56.5 -22.5t23.5 -55.5 t-23 -55.5t-55 -22.5q-48 0 -88 10.5t-73.5 29t-61.5 43.5t-50 55q-39 -38 -97 -64t-126.5 -42.5t-142.5 -24t-145 -7.5h-76q-33 0 -55.5 22.5t-22.5 55.5zM357 -488l-148 -148l-150 149l148 149zM751 -489l-148 -149l-150 150l148 148zM804 98q0 33 23 55.5t55 22.5h111 q56 0 123.5 2.5t130.5 15t113.5 39t71.5 73.5v-1q16 33 16 88q0 47 -14 106t-36 129q-8 25 -19.5 54t-22.5 56.5t-21.5 50.5t-16.5 37l142 71q6 -14 16 -36t22 -51t24.5 -63t24.5 -71q26 -81 39 -151t13 -130q0 -88 -28 -153q-35 -73 -95.5 -125.5t-144.5 -75.5 q-26 -8 -67 -12t-84.5 -6t-82.5 -2.5t-61 -0.5h-154q-32 0 -55 22.5t-23 55.5zM1208 -344l-148 -148l-150 149l148 149zM1602 -345l-148 -149l-150 150l148 148z"/>
    <glyph glyph-name="uni0621" unicode="ء" horiz-adv-x="1019" arabic-form="isolated" d="M780 567q-18 7 -38 14q-18 6 -40 12t-46 11q-24 3 -51.5 3t-49.5 -4q-61 -18 -97.5 -64.5t-36.5 -104.5q0 -35 15 -67t40 -58t57.5 -43.5t68.5 -22.5q7 -1 15 -1.5t18 -0.5q31 0 64.5 7.5t66 18.5t63 25t56.5 26q15 -29 28.5 -54.5t28.5 -53.5q-18 -9 -40.5 -19.5 t-57 -24t-85 -33t-125.5 -47.5t-178 -66t-242 -90l-42 119l293 111q-61 37 -104 92.5t-57 115.5q-8 29 -8 63q0 72 32.5 132t86 100.5t121.5 58t138 5.5q28 -5 53.5 -11.5t47 -14t37 -14t22.5 -9.5z"/>
    <glyph glyph-name="uni0627" unicode="ا" horiz-adv-x="502" arabic-form="isolated" d="M182 20q5 82 8.5 158.5t6 148.5t3.5 141.5t1 137.5q0 187 -6.5 343.5t-15.5 275t-17.5 196.5t-12.5 110l157 24q0 -2 1 -6.5t2 -16t3.5 -30t5.5 -47.5q7 -57 12 -123t10 -142q5 -74 8 -144.5t5 -131.5q2 -70 3.5 -147t1.5 -163q0 -134 -4 -281.5t-15 -311.5z"/>
    <glyph glyph-name="uniFE8E" unicode="ا" horiz-adv-x="591" arabic-form="final" d="M581 20q-106 0 -181 24.5t-126 75.5q-31 31 -47.5 67t-24 71t-8.5 67t-1 55v18q1 17 2.5 89.5t1.5 177.5q0 37 -0.5 84t-1.5 89q0 79 -2 168.5t-6 174.5t-9.5 159t-13.5 122l156 28q9 -53 15 -125t9.5 -155t5.5 -172.5t2 -175.5q1 -58 1.5 -112.5t0.5 -104.5 q0 -77 -0.5 -135t-1.5 -88v-26v-18q-1 -48 4 -84.5t32 -62.5q25 -25 71 -39.5t113 -15.5h9q32 0 55.5 -23t23.5 -55q0 -33 -23.5 -55.5t-55.5 -22.5z"/>
    <glyph glyph-name="uni062D" unicode="ح" horiz-adv-x="1592" arabic-form="isolated" d="M867 -608q141 0 267 39.5t248 124.5l90 -129q-142 -95 -302 -147t-341 -52q-150 0 -282 40.5t-230.5 118.5t-155.5 191t-57 257v21t1 22q6 102 46 195.5t110 174t168 146t219 111t263 68.5t301 20q-36 19 -78 50t-88 65.5t-95.5 69.5t-101.5 63.5t-106 46t-108 17.5 t-101.5 -22t-88.5 -56t-75 -74.5t-60 -76.5q-12 8 -21 13.5t-16.5 10.5l-15 10t-17.5 12q-14 10 -28.5 19t-30.5 19q34 54 79.5 108.5t101 97.5t120.5 70t137 27q84 0 158.5 -21.5t142.5 -57t131.5 -81.5t126 -95t125.5 -97t130 -87l-63 -182q-144 15 -280 3.5t-257.5 -46 t-224 -88.5t-178 -124t-121 -152.5t-52.5 -173.5q-1 -80 22.5 -146t65 -118t99.5 -90.5t126 -64t143.5 -38t153.5 -12.5z"/>
    <glyph glyph-name="uniFEA3" unicode="ح" horiz-adv-x="1548" arabic-form="initial" d="M-81 98q0 33 23.5 55.5t56.5 22.5h198q135 0 273 27.5t273.5 72.5t267 103t254.5 120l-298 124q-47 22 -92.5 43t-88 37.5t-81 26t-71.5 9.5q-38 0 -72 -13.5t-63.5 -35.5t-54.5 -49t-45 -54t-34 -50.5t-22 -37.5l-134 80q11 23 31.5 56.5t58.5 79.5q74 90 159 135.5 t176 45.5q47 0 95.5 -11t98.5 -29t101.5 -41.5t104.5 -48.5q58 -27 105.5 -51t93.5 -46.5t95.5 -45t111.5 -45.5q8 -44 16 -79.5t16 -77.5q-34 -14 -56 -23.5t-41.5 -19t-41.5 -21t-58 -29.5q-108 -53 -235 -108t-265.5 -99.5t-285 -72.5t-292.5 -28h-198q-33 0 -56.5 23 t-23.5 55z"/>
    <glyph glyph-name="uniFEA4" unicode="ح" horiz-adv-x="1667" arabic-form="medial" d="M-79 97q0 32 23 55.5t56 23.5h183q136 0 261.5 25t243 66t229.5 93t220 106l60 30q-44 15 -95.5 39t-106.5 50.5t-112 54t-113 49t-109 35.5t-100 14q-56 0 -104 -28.5t-85.5 -67.5t-63.5 -79.5t-38 -63.5l-130 88q31 57 72.5 113t94 99.5t116 70.5t138.5 27 q68 0 137.5 -19t139 -48t139 -65t138.5 -70.5t137 -63t135 -42.5q4 -23 8.5 -42t8 -37t7.5 -36.5t9 -40.5l-27 -12t-20 -9t-29 -14t-55 -27q13 -45 40 -77t61 -53.5t72 -34.5t74 -19.5t67 -8.5t50 -2h6h8q33 0 56 -23.5t23 -55.5q0 -33 -23 -55t-56 -22h-14q-95 0 -176.5 19 t-146.5 55t-112 88t-73 118q-105 -53 -217.5 -103t-232.5 -90t-248 -64t-264 -24l-183 1q-33 0 -56 22t-23 55z"/>
    <glyph glyph-name="uniFEA2" unicode="ح" horiz-adv-x="1600" arabic-form="final" d="M853 -608q141 0 267 39.5t248 124.5l90 -129q-142 -95 -302 -147t-341 -52q-150 0 -282 40.5t-230.5 118.5t-155.5 191t-57 257v21t1 22q6 102 46 195.5t110 174t168 146t219 111t263 68.5t301 20q-36 19 -78 50t-88 65.5t-95.5 69.5t-101.5 63.5t-106 46t-108 17.5 t-101.5 -22t-88.5 -56t-75 -74.5t-60 -76.5q-12 8 -21 13.5t-16.5 10.5l-15 10t-17.5 12q-14 10 -28.5 19t-30.5 19q34 54 79.5 108.5t101 97.5t120.5 70t137 27q84 0 158.5 -21.5t142.5 -57t131.5 -81.5t126 -95t125.5 -97t130 -87l-51 -159l-154 -10q-1 -8 -1 -15.5v-13.5 q0 -15 2 -34t7 -39t14 -39.5t23 -37.5q26 -31 58 -50.5t73.5 -30.5t93.5 -15t118 -4q32 0 55.5 -23.5t23.5 -56.5q0 -32 -23.5 -54t-55.5 -22q-175 0 -288.5 41.5t-179.5 119.5q-32 45 -53 102.5t-24 121.5q-2 14 1 38q-166 -16 -311 -66.5t-254 -128t-175 -176.5t-75 -211 q-1 -80 22.5 -146t65 -118t99.5 -90.5t126 -64t143.5 -38t153.5 -12.5z"/>
    <glyph glyph-name="uni062F" unicode="د" horiz-adv-x="1127" arabic-form="isolated" d="M545 21q-45 0 -106.5 10t-122 26.5t-112 37.5t-77.5 42l67 153q36 -21 81.5 -40t97 -33.5t105.5 -23.5t106 -9q74 0 140.5 20.5t109.5 73.5q35 43 28.5 103.5t-40 128.5t-86.5 138t-112 131.5t-116 108.5t-99 70q18 40 33 74t32 72q55 -30 111.5 -74t110.5 -97t103 -113 t89 -123t69.5 -126t43.5 -122q7 -33 10 -69t-1.5 -71t-17 -68.5t-36.5 -61.5q-89 -107 -247 -141q-35 -9 -76.5 -13t-87.5 -4z"/>
    <glyph glyph-name="uni0631" unicode="ر" horiz-adv-x="717" arabic-form="isolated" d="M481 625q27 -93 50 -181q10 -38 20 -78t18.5 -79.5t15.5 -76t11 -66.5q0 -12 1.5 -24.5t1.5 -29.5q0 -83 -24.5 -162t-67.5 -151.5t-102.5 -139t-129.5 -125.5t-148.5 -109.5t-159.5 -91.5l-69 140q105 54 203 123.5t174 151t122 173.5t46 191q0 10 -1 20t-2 21 q-4 37 -12.5 80.5t-19.5 89t-23 89t-23 81t-20 65.5t-13 42z"/>
    <glyph glyph-name="uniFEAE" unicode="ر" horiz-adv-x="816" arabic-form="final" d="M605 69q0 -83 -24.5 -161.5t-68 -151t-103 -139t-129.5 -125.5t-148 -110t-158 -92q-19 40 -35.5 71t-34.5 69q69 36 136 79t127.5 91.5t112 103t89 113.5t58.5 122.5t21 130.5q0 10 -0.5 20t-1.5 20q-7 54 -20.5 115t-29.5 121t-32.5 114.5t-28.5 94.5l150 46 q38 -112 75.5 -192.5t78 -132t85 -76t96.5 -24.5h5q33 0 56 -23.5t23 -55.5q0 -33 -23 -55t-56 -22q-13 0 -35 1.5t-51 11t-63 30.5t-71 59v-53z"/>
    <glyph glyph-name="uni0633" unicode="س" horiz-adv-x="2654" arabic-form="isolated" d="M2420 897q10 -18 24 -47.5t30 -67t32 -81.5t29 -91.5t20.5 -97t7.5 -97.5q-1 -82 -19 -153.5t-56.5 -124.5t-99 -83.5t-145.5 -30.5q-26 0 -56.5 9.5t-62 27.5t-61 45t-53.5 63q-66 -78 -141 -110t-156 -36q-45 -2 -85 10.5t-70 29.5q-35 19 -65 45q8 -130 -16.5 -237.5 t-75 -192.5t-123 -147t-158.5 -101.5t-183 -56.5t-196 -11q-128 0 -234 36t-187 109q-73 65 -121 156t-63 198q-26 174 17.5 349t141.5 333q34 -25 63 -44t60 -42q-35 -56 -63 -127t-45 -148t-22.5 -154t4.5 -145q4 -27 14 -65t30.5 -78t52.5 -79.5t80 -70.5t114 -50 t155 -19q157 7 270.5 42t186.5 99t107.5 157t34.5 216q0 76 -12.5 147t-33.5 137t-49 126t-59 115l138 78q4 -11 12 -29q7 -15 17 -38t25 -56q27 -62 59 -121.5t72 -106t89.5 -75t110.5 -29.5q64 3 102 31.5t58 73.5t26.5 103t6.5 120v122q45 4 83.5 8t81.5 9q1 -9 1 -20 v-20.5t1 -24.5q1 -26 3.5 -66.5t9.5 -86t19 -92t32 -83.5t49.5 -60t70.5 -23q38 0 68 22t50 58t30 82.5t9 94.5q-4 56 -17 111t-31 105t-38 93t-37 76z"/>
    <glyph glyph-name="uniFEB3" unicode="س" horiz-adv-x="1609" arabic-form="initial" d="M-72 97q0 30 21 53t51 26q59 2 107.5 25t87 61t67.5 87t51 102.5t37.5 108t25.5 104.5l157 -31q-8 -27 -19 -64t-21 -78t-17 -83t-7 -79q0 -30 5.5 -59.5t20 -52t39.5 -36.5t63 -14q53 0 95.5 26.5t75.5 70.5t57.5 100t42.5 114.5t29.5 115t18.5 100.5q42 -8 77.5 -15 t74.5 -14v3v-4q-4 -21 -10 -56t-12 -75t-10.5 -81t-4.5 -74q0 -42 7 -80.5t26 -68t51.5 -47.5t82.5 -18q44 0 76 15t52.5 41.5t30.5 62t10 77.5q0 55 -13.5 118t-33.5 124.5t-42.5 115.5t-40.5 90l139 74q13 -27 38.5 -82.5t50 -127t43 -152t18.5 -157.5q0 -81 -22.5 -147 t-68 -112.5t-114.5 -71.5t-161 -24q-36 0 -73 13t-71.5 35t-65.5 52t-54 65q-66 -76 -142.5 -120.5t-156.5 -44.5q-35 0 -72.5 10.5t-72.5 31.5t-64.5 52t-47.5 72q-33 -35 -68.5 -63.5t-77 -48.5t-89.5 -31t-105 -12h1q-30 2 -51.5 24t-21.5 54z"/>
    <glyph glyph-name="uniFEB4" unicode="س" horiz-adv-x="1851" arabic-form="medial" d="M-81 98q0 31 24.5 53.5t55.5 24.5h8q46 0 86.5 23.5t76 60t64.5 81.5t52 88q21 40 38.5 80.5t30 76t21.5 63.5t14 45v2q38 -10 76 -20.5t76 -21.5q-2 -4 -2 -6l1 1q-7 -26 -16.5 -71t-16.5 -96q-4 -31 -7 -65.5t-1.5 -69t9 -68.5t24.5 -63v1q19 -34 59 -39 q27 -8 56.5 0.5t52.5 25.5q48 35 92.5 111t79.5 185v-1q17 50 29.5 99.5t23.5 107.5l155 -29q-10 -53 -14.5 -96.5t-6.5 -85.5q-1 -11 -1 -23v-23q0 -78 14 -136t40 -90q13 -17 35.5 -30.5t65.5 -13.5q62 0 99 43v-1q36 39 58 114.5t28 177.5q1 20 1.5 40t0.5 37 q0 28 -2 55.5t-4 56.5l159 14q4 -59 14 -127t37 -155q42 -128 101.5 -193t138.5 -65h8q33 0 55.5 -22.5t22.5 -55.5q0 -32 -22.5 -55t-55.5 -23h-8q-76 0 -143 32t-120 93q-16 17 -34.5 43.5t-38.5 60.5q-20 -45 -39.5 -78.5t-38.5 -53.5q-42 -48 -97 -72.5t-120 -24.5 q-69 0 -126 26t-97 77q-14 17 -28.5 43.5t-31.5 67.5q-74 -111 -138 -158q-41 -28 -86 -43.5t-91 -15.5q-53 0 -93 15t-70.5 43.5t-54.5 69.5t-45 92q-51 -69 -87 -102q-118 -115 -259 -115h-9q-32 0 -55.5 23t-23.5 55zM1081 677v1v-1z"/>
    <glyph glyph-name="uniFEB2" unicode="س" horiz-adv-x="2889" arabic-form="final" d="M2891 176q32 0 55.5 -23t23.5 -56q0 -32 -23.5 -54.5t-55.5 -22.5h-9h-11q-157 0 -264 125q-14 14 -32 41.5t-40 65.5q-22 -50 -41.5 -83t-36.5 -53q-42 -45 -96 -71t-120 -26q-26 0 -56 9.5t-61 28.5t-60 46t-53 62q-65 -75 -143 -108t-156 -38q-47 -2 -87 7.5t-69 21.5 q-34 14 -63 32l2 -52q7 -105 -17.5 -197t-73.5 -168t-119.5 -134.5t-156.5 -98t-184 -58.5t-202 -15q-125 0 -232.5 38t-188.5 107q-35 33 -65.5 73t-54.5 85.5t-40.5 95t-23.5 101.5q-9 60 -9 117q0 91 15.5 171.5t34.5 140.5q26 90 57.5 156.5t56.5 104.5q34 -25 65 -48.5 t62 -46.5q-18 -28 -41 -79t-43 -116.5t-34 -140t-14 -149.5q0 -46 6 -88q4 -28 14.5 -65.5t31.5 -77.5t55 -79.5t86 -71t124 -50.5t169 -19q219 10 353 88.5t182 223.5q20 62 28.5 126t8.5 129q0 112 -25.5 224t-81.5 240q18 12 34.5 20.5t32.5 16.5l32 16t33 19q2 -2 8 -17 q5 -13 16 -39.5t30 -75.5q21 -59 43.5 -114.5t54 -98.5t76 -69.5t108.5 -26.5q53 0 90.5 18t62 49.5t39 73.5t22.5 90t10.5 100t4.5 103v15l164 -11l-7 -152q0 -46 5.5 -97.5t21.5 -94.5t46 -71t80 -28q34 0 54 13t40 36v-1q36 39 61.5 114.5t30.5 178.5q2 47 -2 92.5 t-8 96.5l164 11q2 -30 5 -60t7.5 -62.5t11 -69.5t16.5 -82q42 -128 104.5 -196t141.5 -68h20z"/>
    <glyph glyph-name="uni0635" unicode="ص" horiz-adv-x="2867" arabic-form="isolated" d="M836 -629q-23 0 -48 1t-51 5q-97 7 -176 30.5t-143 61.5q-60 35 -103.5 83.5t-75.5 109.5q-28 60 -42 127t-13 144q0 62 10 127t27 134q13 52 29.5 100t33 87.5t31 70t25.5 48.5l132 -85q-14 -26 -36.5 -78t-43.5 -118.5t-36 -142.5t-15 -151q0 -52 9.5 -101.5 t30.5 -92.5q42 -85 136.5 -135.5t232.5 -62.5q21 -2 43.5 -3t42.5 -1q112 0 202.5 29t156.5 85q48 45 79.5 95t50 101.5t26.5 103.5t8 100q0 78 -13.5 158t-33 153t-40 133t-34.5 98q37 14 75.5 29.5t70.5 26.5q17 -39 30.5 -70.5t26 -58.5t26.5 -52t31 -52q35 -56 72 -88.5 t60 -46.5q40 74 106 162t152 171v-1q87 82 187 142.5t206 80.5h-1q55 11 112 9t110 -16.5t100.5 -42t85.5 -68.5q54 -54 80 -123t23 -139q-9 -104 -63 -193t-142 -149q-53 -33 -111 -55t-116.5 -36t-113.5 -20.5t-101 -7.5q-12 -1 -23.5 -1h-23.5q-89 0 -165 9.5t-145.5 31 t-136.5 55.5t-137 82q0 -9 0.5 -24.5t1 -32t1 -32t0.5 -24.5q0 -83 -15 -165.5t-47 -152.5q-28 -63 -67.5 -116.5t-88.5 -95.5q-88 -72 -205 -111t-257 -39zM1767 201q78 -29 162.5 -43t174.5 -14q51 0 104.5 6t105 18t99 29.5t86.5 40.5q57 38 93 94.5t43 125.5q1 24 -5 46 t-15 40.5t-20 33t-20 23.5q-30 30 -62.5 47t-66.5 24.5t-69 7t-69 -6.5h1q-83 -14 -162 -64t-150 -117q-39 -37 -74 -76.5t-65 -77.5t-53 -73.5t-38 -63.5z"/>
    <glyph glyph-name="uniFEBB" unicode="ص" horiz-adv-x="1871" arabic-form="initial" d="M739 169q66 -13 142 -16.5t154 1t154 16t143 30t120 42.5t86 54q42 38 65 81t27 86.5t-10 84.5t-45 75q-47 40 -95.5 58t-97 18.5t-96.5 -15t-95 -41t-91.5 -59t-86.5 -70.5v1q-47 -44 -90.5 -94t-80 -97t-63.5 -88t-40 -67zM-79 98q0 33 23.5 55.5t55.5 22.5 q64 0 109 10t76 25.5t50 33.5t31 34q37 51 55 117.5t34 144.5q8 38 15.5 73.5t16.5 67.5l151 -45q-2 -5 -7 -29t-10 -53.5t-8.5 -58t-1.5 -41.5q0 -52 16.5 -114t65.5 -124q14 32 43 79.5t69 103t90.5 114.5t108.5 114q54 51 117 95t131 75.5t139 46.5t140.5 9.5t135 -35 t122.5 -87.5q49 -62 73 -136t19.5 -149t-39.5 -146t-104 -127q-66 -54 -147.5 -90t-168 -57t-174 -30t-166.5 -9q-105 0 -184.5 4.5t-146.5 25.5t-125.5 64.5t-121.5 121.5q-68 -94 -165.5 -138.5t-229.5 -45.5h-9q-32 0 -55.5 22.5t-23.5 55.5z"/>
    <glyph glyph-name="uniFEBC" unicode="ص" horiz-adv-x="1933" arabic-form="medial" d="M-79 97q0 33 23 56t55 23h9q122 3 170 26q26 13 47 31.5t41 44.5q36 48 58 115.5t42 158.5q8 33 15 65.5t16 64.5l149 -46q-11 -41 -22 -86t-11 -103q0 -26 2 -57t10.5 -62.5t26.5 -61.5t50 -52q15 32 43.5 80t68 103.5t88.5 114.5t105 114q42 39 91 74.5t101 64t106 49 t105 30.5h-1q56 11 112 10.5t108.5 -14t99.5 -40.5t85 -68q55 -55 73 -124t15 -138q-6 -76 -44 -152t-104 -142h279q33 0 56.5 -23t23.5 -56t-23.5 -55t-56.5 -22l-252 -1q-108 0 -174 6.5t-107 25.5q-107 -29 -213.5 -45.5t-200.5 -16.5q-27 0 -74 2.5t-103.5 10t-117.5 22 t-115.5 39.5t-97.5 61.5t-63 87.5q-80 -106 -173 -147q-93 -45 -243 -45q-32 0 -55 22t-23 55zM756 170q42 -5 71.5 -8t54 -5t47 -3t48.5 -1q76 0 156.5 7.5t156 24.5t142.5 44.5t117 67.5h-1q92 74 98 184q3 50 -11 87.5t-32 54.5q-31 30 -63 46.5t-65 22.5t-67 4t-69 -7 q-83 -13 -167.5 -61.5t-155.5 -116.5v1q-47 -44 -88.5 -93t-75 -95.5t-58.5 -87t-38 -66.5z"/>
    <glyph glyph-name="uniFEBA" unicode="ص" horiz-adv-x="2868" arabic-form="final" d="M1730 200q81 -30 166.5 -44t176.5 -14q51 0 103.5 6t103.5 18t98 29.5t86 41.5q45 24 76 69.5t42.5 98t2 104.5t-44.5 90q-29 30 -61 47.5t-66 25t-69.5 7t-70.5 -6.5q-42 -7 -82 -23.5t-79 -40.5t-76 -53.5t-72 -62.5q-39 -37 -75 -77t-66 -78.5t-54 -74t-39 -62.5z M2868 20q-46 0 -89.5 8.5t-81.5 22t-68.5 31.5t-50.5 38q-63 -40 -127 -65t-124.5 -40t-116 -21.5t-102.5 -7.5q-12 -1 -23.5 -1h-23.5q-101 0 -197 16t-174 45q-49 18 -102.5 47.5t-113.5 72.5q1 -11 2 -29t2 -37t2 -36.5t1 -28.5v-27t-2 -27q-5 -68 -20.5 -130.5 t-39.5 -117.5q-29 -61 -69 -116t-88 -97q-88 -72 -205 -111t-256 -39q-23 0 -48 1t-50 3q-96 10 -176.5 32.5t-143.5 61.5q-120 71 -180 193q-57 116 -55 271q2 125 37 261q13 52 29 100t32 88t30.5 71t25.5 50q38 -25 68.5 -44.5t66.5 -42.5q-13 -26 -35 -77.5t-43.5 -118 t-37.5 -143.5t-16 -152q0 -52 9 -101t31 -93q44 -90 135 -138t235 -61q40 -3 81 -3q228 0 364 112q45 39 74.5 84t48 91.5t27 92t11.5 85.5q1 13 1.5 26t0.5 27q0 82 -15.5 167t-36 159.5t-40.5 131t-29 80.5l147 58q38 -88 76 -153.5t73 -117.5q14 -21 36.5 -45.5 t60.5 -52.5q19 36 46.5 77t60.5 84.5t72 87.5t83 85q87 85 185.5 143t202.5 78h-1q55 11 112 9.5t110 -16t100.5 -42.5t84.5 -70q43 -50 67 -109t28.5 -121t-11 -124.5t-49.5 -119.5q7 -10 26 -20t43.5 -18.5t52 -14.5t52.5 -6h8q33 0 56 -23t23 -56q0 -32 -23 -54.5 t-56 -22.5z"/>
    <glyph glyph-name="uni0637" unicode="ط" horiz-adv-x="1776" arabic-form="isolated" d="M856 20q-33 0 -64.5 1t-61.5 3h-4q-146 8 -298.5 40.5t-309.5 91.5q16 41 28.5 75t27.5 72q59 -23 122.5 -42.5t133.5 -36.5q21 31 58.5 82t83.5 110q7 48 12 90t8 80.5t4.5 74.5t1.5 73q0 62 -3.5 132.5t-10.5 161.5q-7 99 -15.5 183.5t-16 150.5t-13 110t-8.5 61 l157 21q3 -22 9.5 -81t14.5 -136t17 -162.5t15 -161.5q3 -32 4.5 -55t3 -44.5t2 -45t1.5 -56t1.5 -79t2.5 -112.5q269 256 483 287q72 12 148.5 -2.5t140.5 -53.5t106.5 -100t47.5 -141q3 -52 -8 -103t-31 -96.5t-45.5 -83.5t-52.5 -64q-82 -79 -173 -127t-182 -74 t-177.5 -34.5t-159.5 -8.5zM603 192l25 -2.5t31 -3t31 -3t25 -1.5q5 0 10 -0.5t10 -0.5l62 -2t63 -1q67 0 141 4.5t149.5 24t151 58t144.5 107.5q19 19 35.5 46.5t28.5 59t17 65t2 63.5q-6 48 -32.5 78.5t-64 47t-82 20.5t-84.5 0q-105 -17 -229 -97.5t-261 -232.5z"/>
    <glyph glyph-name="uniFEC3" unicode="ط" horiz-adv-x="1509" arabic-form="initial" d="M340 177q16 -1 61.5 -1h129.5q72 0 151 4t161 23t166.5 57t168.5 107q25 22 47.5 48t38 56t22 63.5t0.5 68.5q-8 45 -37.5 76.5t-69.5 49t-85.5 22t-86.5 -2.5q-106 -23 -228.5 -107.5t-260.5 -235.5v1q-9 -10 -19 -22t-29 -36t-49.5 -64.5t-80.5 -106.5zM-82 98 q0 32 23.5 55t55.5 23h9h153q3 5 11 17.5t13 22.5l-1 -1q17 30 48 80t85 117q11 67 17 162.5t7 223.5q1 120 -5.5 245.5t-17.5 237.5l-21 215l163 29q22 -172 33 -348.5t11 -365.5q0 -18 -0.5 -44t-1 -54t-1 -54t-0.5 -45q136 126 257.5 198t226.5 92q47 8 94 7.5t92 -11 t87 -32.5t78 -56q39 -42 64 -92t30 -112q4 -53 -7.5 -105t-32.5 -98.5t-48 -85.5t-53 -67q-87 -77 -178 -123t-180 -70.5t-173.5 -32t-157.5 -7.5l-592 1h-9q-32 0 -55.5 22t-23.5 56z"/>
    <glyph glyph-name="uniFEC4" unicode="ط" horiz-adv-x="1583" arabic-form="medial" d="M484 175q23 0 45 -0.5t45 -0.5q84 0 162 6t153.5 26t149 58t147.5 103q20 20 37.5 47.5t30.5 58.5t20 64t6 63q-8 47 -35.5 77.5t-64.5 47.5t-80 22t-82 1q-52 -9 -128.5 -44t-166 -103.5t-186.5 -173t-189 -251.5zM-86 98q0 33 22.5 55.5t55.5 22.5h8h156q24 38 44.5 68 t40 56.5t38 50t38.5 47.5l4 7q7 9 12 31.5t8.5 55.5t5 75.5t1.5 91.5q0 65 -2 140t-6 153t-9 155.5t-11 148t-12 130.5t-12 103l155 28q28 -186 43 -381.5t15 -415.5v-108q275 257 484 289q73 11 149 -2.5t139 -50.5t106 -97.5t51 -143.5q4 -53 -7.5 -104t-32 -96.5 t-46.5 -83.5t-51 -65q-8 -8 -22 -21.5t-28 -27.5q-17 -16 -35 -33h373q33 0 55.5 -22t22.5 -55q0 -32 -22.5 -55t-55.5 -23q-20 0 -40.5 -0.5t-48 -1t-66 -0.5h-93.5q-43 0 -90.5 1t-96.5 5.5t-98.5 13.5t-96.5 24q-100 -29 -188 -36t-166 -7h-613q-33 0 -55.5 22.5 t-22.5 55.5z"/>
    <glyph glyph-name="uniFEC2" unicode="ط" horiz-adv-x="1867" arabic-form="final" d="M948 20q-21 -1 -41 -1h-40q-23 0 -49.5 0.5t-76.5 3.5h-4q-146 8 -298.5 40.5t-309.5 91.5q16 41 28.5 75t27.5 72q59 -23 122.5 -42.5t133.5 -36.5q21 31 57 80.5t77 100.5l25 36q7 48 9.5 86.5t2.5 72t-1.5 66t-1.5 68.5q0 62 -3.5 132.5t-10.5 161.5t-14.5 171.5 t-14.5 144.5t-13 109t-9 66l155 35q2 -15 5.5 -46.5t8 -73.5t10 -91t10.5 -99t9.5 -97.5t8.5 -86.5l4 -47q4 -48 6 -75t2.5 -48t1 -43t1.5 -59l4 -167q269 256 483 287q17 3 34 5t34 2q65 0 130.5 -21t118.5 -60.5t87.5 -96t38.5 -126.5q3 -52 -12.5 -114t-47 -122 t-77 -112.5t-102.5 -83.5l403 -2h8q33 0 55.5 -22.5t22.5 -55.5q0 -32 -22.5 -55t-55.5 -23h-920zM930 178q62 3 127 12.5t131 32t132.5 60t131.5 96.5q18 20 35.5 46.5t30 56t19 61.5t3.5 62q-5 40 -26 68t-52 46t-67.5 26.5t-71.5 8.5q-25 0 -46 -3q-105 -17 -229 -103 t-261 -238l-175 -222z"/>
    <glyph glyph-name="uni0639" unicode="ع" horiz-adv-x="1543" arabic-form="isolated" d="M828 -715q-72 0 -147 11.5t-147.5 38.5t-141 70t-126.5 106q-79 85 -113.5 198t-26.5 235q5 96 41.5 186.5t98.5 171.5q33 40 74 78t87.5 71.5t97 62.5t101.5 50l-2 -1l56 19l-47 24q-72 51 -109 128t-37 170q0 83 33.5 156t89.5 128t130 88.5t155 36.5q53 3 106.5 -8.5 t104.5 -34t97.5 -53.5t85.5 -67q-24 -29 -50 -61.5t-49 -60.5q-48 37 -97 66q-42 25 -93 44t-97 18q-54 -9 -103 -29.5t-85 -55t-55 -84t-14 -115.5q8 -89 77 -137q40 -27 102 -44t143 -17q24 0 50 1.5t52 5.5q46 6 85.5 13.5t69.5 14.5q34 8 64 16q9 -42 13 -82t12 -81 q-52 -9 -106 -18.5t-130 -21.5q-88 -15 -153.5 -29.5t-117.5 -30.5t-96 -34.5t-89 -40.5q-24 -12 -57.5 -32t-70 -48.5t-72.5 -65.5t-65.5 -83.5t-49.5 -102.5t-24 -121v1q-8 -117 34.5 -207t119.5 -151t180 -92.5t215 -31.5q63 0 126.5 10t125.5 30t120.5 49.5t110.5 69.5 l93 -133q-78 -62 -153.5 -100t-148.5 -59t-142.5 -28t-135.5 -7z"/>
    <glyph glyph-name="uniFECB" unicode="ع" horiz-adv-x="1072" arabic-form="initial" d="M875 634q-43 35 -91 62q-42 23 -93.5 43t-107.5 20q-63 0 -110.5 -21.5t-80 -57t-48.5 -82t-16 -95.5q0 -67 29.5 -122.5t79 -94t114.5 -58t136 -14.5q48 3 92.5 8.5t82 11t66 11t43.5 8.5l19 -152q-56 -14 -126.5 -28.5t-163.5 -25.5t-212 -18t-270 -7l-218 -2 q-33 0 -56.5 22.5t-23.5 55.5t23.5 55.5t56.5 22.5l335 4q-90 82 -126.5 160.5t-36.5 162.5t31 158.5t86 131t130 89.5t164 33q76 0 141 -20t115 -47t84 -54t49 -41z"/>
    <glyph glyph-name="uniFECC" unicode="ع" horiz-adv-x="1138" arabic-form="medial" d="M1146 176q32 0 55.5 -23.5t23.5 -56.5q0 -32 -23.5 -54.5t-55.5 -22.5q-157 0 -293.5 30t-249.5 96q-65 -31 -140 -54.5t-153.5 -39.5t-157.5 -24t-151 -8q-32 0 -55.5 22.5t-23.5 54.5q0 33 23.5 56.5t55.5 23.5q52 0 112.5 5.5t121 15t117.5 23.5t101 32 q-75 69 -138 140.5t-125 145.5l-79 93l10 123q48 42 101 70.5t105 47t100.5 28.5t89.5 15q23 2 46 3.5t43 1.5q75 0 146 -13.5t131 -38.5q48 -22 78.5 -47.5t47.5 -51t23.5 -48.5t6.5 -39q5 -44 -19 -102.5t-66.5 -119.5t-97 -118.5t-109.5 -99.5q86 -33 190.5 -49.5 t208.5 -16.5zM605 331q29 15 61 42t62.5 60t58 69.5t48.5 70.5t33.5 63t12.5 48q-60 39 -133.5 59t-151.5 20q-75 0 -156 -21.5t-159 -66.5q46 -55 87 -103.5t80 -91t77.5 -79.5t79.5 -70z"/>
    <glyph glyph-name="uniFECA" unicode="ع" horiz-adv-x="1355" arabic-form="final" d="M666 -607q72 -9 147.5 -8.5t151 13t147.5 38.5t137 67q23 -37 41.5 -69t39.5 -67q-87 -54 -188.5 -89t-209.5 -47.5t-216 -1.5t-208 48t-186 101t-148 158q-31 52 -45.5 118t-13.5 135t16 135.5t44 118.5h-1q30 54 75.5 103t101 91t118.5 77t127 61q-90 81 -156 150 t-125 133q-3 27 -5.5 55t-4.5 54q31 45 75 78t91.5 56.5t92.5 38.5t80 23l-1 -1q54 12 106.5 18t102.5 6q54 0 103.5 -7t91.5 -21q99 -30 150.5 -89.5t48.5 -140.5q-2 -80 -41.5 -151t-106.5 -127q-37 -29 -87.5 -59t-107.5 -56q113 -69 226.5 -114t225.5 -45 q32 -1 54.5 -24t22.5 -55q0 -33 -22.5 -55t-54.5 -23q-81 0 -159 18t-155.5 50t-154 77t-154.5 99q-81 -32 -163 -74t-148 -98.5t-108 -129.5t-42 -167q0 -53 19 -102t50.5 -91.5t72.5 -78t85 -62.5t87.5 -44t80.5 -23zM473 719q36 -38 69.5 -72.5t67.5 -68t69.5 -66.5 t76.5 -67q80 33 141.5 64.5t103.5 65.5t63.5 72t23.5 84q0 15 -8 27t-20.5 22t-27.5 17t-30 12q-34 11 -71.5 15.5t-77.5 4.5q-48 0 -99.5 -8t-101.5 -22.5t-96 -34.5t-83 -45z"/>
    <glyph glyph-name="uniFEDB" unicode="ك" horiz-adv-x="942" arabic-form="initial" d="M-88 97q0 34 24.5 56.5t63.5 22.5h56h49q62 0 129 2t128.5 13t112.5 35.5t81 69.5q43 65 43 149q0 47 -15 104q-7 28 -29.5 66.5t-55.5 83t-76 94t-92 99.5t-102.5 99t-108.5 94q5 48 10.5 92t10.5 90q201 86 396 169.5t396 169.5q16 -38 32 -73.5t31 -71.5l-728 -306 q57 -48 121.5 -105.5t122.5 -122.5q67 -74 112.5 -142.5t73.5 -131t40 -119t12 -105.5q0 -64 -16.5 -117.5t-40.5 -97.5h1q-85 -151 -288 -188q-20 -4 -41 -5.5t-42 -1.5l-323 1q-38 0 -63 22.5t-25 54.5z"/>
    <glyph glyph-name="uniFEDC" unicode="ك" horiz-adv-x="1188" arabic-form="medial" d="M-89 98q0 32 23.5 55t55.5 23h9h330q43 0 85.5 18t78 47.5t59.5 67t29 76.5q3 57 -17 121t-55.5 128.5t-83 128.5t-99 121.5t-104 106t-98.5 84.5q5 51 11.5 100t12.5 99l854 368q16 -38 32 -73.5t31 -71.5l-807 -339q94 -77 161.5 -150t118 -143.5t89 -139.5t75.5 -138 q25 -47 50.5 -94.5t54.5 -95.5q31 -51 65 -91t75 -68.5t89.5 -44t107.5 -17.5h43q33 0 55.5 -23t22.5 -55q0 -33 -22.5 -55.5t-55.5 -22.5h-8q-70 0 -123 8.5t-104 25.5h1q-68 25 -131 80.5t-115 121.5q-24 -44 -47.5 -77t-49.5 -57h1q-63 -56 -140 -77t-156 -25h1h-326 q-32 0 -55.5 22.5t-23.5 55.5z"/>
    <glyph glyph-name="uni0643" unicode="ك" horiz-adv-x="2003" arabic-form="isolated" d="M1842 954q2 -54 3.5 -100.5t3.5 -88.5q4 -98 5.5 -161.5t1.5 -95.5q-1 -48 -11 -95.5t-35 -94.5q-38 -73 -108 -129t-165 -94q-109 -40 -252 -63t-314 -23q-174 2 -318 23.5t-250 59.5q-97 38 -166 93t-103 126q-40 76 -40 169q0 44 10 92.5t28 96.5q20 51 41 89.5 t34 58.5l126 -94q-6 -8 -7 -10l-6 -12l1 1q-11 -19 -22.5 -42.5t-21.5 -50.5q-25 -68 -25 -128q0 -26 6 -51.5t16 -46.5q28 -50 88.5 -89.5t149.5 -67t204.5 -43t254.5 -15.5q163 0 288.5 17.5t218.5 54.5q141 57 193 153l-1 -1q17 31 23 62.5t7 62.5l-2.5 72.5t-3.5 99 t-5 121t-6 139.5q-3 90 -8 174t-9.5 153t-8.5 120.5t-7 77.5l156 16q1 -16 5.5 -60.5t9.5 -113.5t10.5 -160.5t10.5 -201.5zM1145 901q-15 2 -32 5q-15 3 -31 4.5t-32 1.5q-18 0 -36 -3t-37 -12h1q-39 -15 -63 -49.5t-24 -73.5q0 -9 2 -21t8 -24q8 -20 23.5 -37.5t35.5 -31 t43.5 -21t49.5 -7.5q12 0 24 1.5t27 7.5l-1 -1q24 7 47.5 18.5t43.5 23t35.5 21.5t22.5 16l53 -69q-42 -29 -106 -65t-154 -86l-244 -135q-12 22 -21 39t-21 38l210 117q-53 23 -92.5 59.5t-58.5 77.5q-14 36 -14 79q0 33 10 64.5t29 58t44.5 48t57.5 34.5q51 20 105 20 q39 0 72.5 -6.5t48.5 -11.5z"/>
    <glyph glyph-name="uniFEDA" unicode="ك" horiz-adv-x="2060" arabic-form="final" d="M1891 275q10 -22 23.5 -39.5t33 -30.5t47 -20.5t65.5 -8.5q32 0 55 -23t23 -55t-23 -55t-55 -23q-100 3 -177 45v-1q-82 47 -141 162q-48 -48 -105 -85.5t-118 -62.5q-109 -40 -252 -63t-314 -23q-174 2 -318 23.5t-250 59.5q-97 38 -166 93t-103 126q-40 76 -40 169 q0 44 10 92.5t28 96.5q20 51 41 89.5t34 58.5l126 -94q-15 -26 -29 -52.5t-27 -61.5q-25 -68 -25 -128q0 -26 6 -51.5t16 -46.5q28 -50 88.5 -89.5t149.5 -67t204.5 -43t254.5 -15.5q163 0 288.5 17.5t218.5 54.5q49 20 85.5 39t62 49t40.5 75.5t20.5 118t2.5 176.5t-14 251 q-3 90 -8 174t-9.5 153t-8.5 120.5t-7 77.5l156 16q1 -15 5.5 -60.5t9.5 -115t10.5 -161t10.5 -199.5q2 -40 4.5 -78t5.5 -71q1 -14 2 -29t2.5 -40t3 -63.5t3.5 -99.5q5 -99 18 -167.5t36 -113.5zM1125 901q-15 2 -32 5q-15 3 -31 4.5t-32 1.5q-18 0 -36 -3t-37 -12h1 q-39 -15 -63 -49.5t-24 -73.5q0 -9 2 -21t8 -24q8 -20 23.5 -37.5t35.5 -31t43.5 -21t49.5 -7.5q12 0 24 1.5t27 7.5l-1 -1q24 7 47.5 18.5t43.5 23t35.5 21.5t22.5 16l53 -69q-42 -29 -106 -65t-154 -86l-244 -135q-12 22 -21 39t-21 38l210 117q-53 23 -92.5 59.5 t-58.5 77.5q-14 36 -14 79q0 33 10 64.5t29 58t44.5 48t57.5 34.5q51 20 105 20q39 0 72.5 -6.5t48.5 -11.5z"/>
    <glyph glyph-name="uni0644" unicode="ل" horiz-adv-x="1472" arabic-form="isolated" d="M338 330q-27 -54 -48 -119q-18 -56 -33 -130.5t-15 -162.5q0 -70 18.5 -126t49.5 -99t71.5 -74.5t83.5 -52.5t86 -32t79 -13h-1q8 -1 16 -1h16q51 0 106.5 11t108.5 35t100.5 61t83.5 88.5t57 119t21 151.5q0 73 -2 170.5t-5 209t-7.5 231t-9 236.5t-9 225.5t-8.5 197.5 t-7 153t-4 92q44 1 79 3.5t77 4.5q15 -314 26 -603q5 -123 9.5 -252.5t8.5 -251.5t6 -229.5t2 -186.5q0 -117 -28.5 -208.5t-76.5 -160.5t-111 -117t-133 -78.5t-141.5 -44t-136.5 -13.5h-17.5t-17.5 1q-59 3 -122.5 18.5t-124 44.5t-115 73t-96 104.5t-65.5 138t-23 174.5 q1 104 14 185t30.5 140t35.5 96.5t29 54.5z"/>
    <glyph glyph-name="uniFEDF" unicode="ل" horiz-adv-x="547" arabic-form="initial" d="M-78 98q0 33 23 55.5t55 22.5h9h47q121 0 175 54q30 30 44 84.5t13 135.5l-17 491q-3 90 -8 174t-9.5 153t-8.5 120.5t-7 77.5l156 16q1 -15 5.5 -60.5t9.5 -115t10.5 -161t10.5 -199.5l7 -211q2 -57 3.5 -99t2.5 -75t1.5 -59.5t1.5 -52.5q1 -36 -2 -79t-13.5 -87 t-31 -86.5t-54.5 -77.5q-99 -99 -289 -99h-47h-9q-32 0 -55 23t-23 55z"/>
    <glyph glyph-name="uniFEE0" unicode="ل" horiz-adv-x="661" arabic-form="medial" d="M-78 98q0 32 23 55t55 23h9h86q31 1 53.5 3t38.5 5.5t27.5 8.5t20.5 13q16 13 27 34t18 45.5t10.5 52t5.5 54.5q0 29 1 88t2 137.5t2 171.5t1 189q0 76 -0.5 150.5t-2 143t-4.5 127t-7 102.5q42 5 79 10.5t76 10.5q5 -48 8.5 -113.5t6 -140t3.5 -155t1 -158.5 q0 -158 -2.5 -303t-4.5 -263q0 -12 1 -27.5t4.5 -33t10.5 -36t18 -36.5q11 -17 25.5 -32t34.5 -25.5t47.5 -16.5t65.5 -6q33 0 56.5 -23t23.5 -55q0 -33 -23.5 -55.5t-56.5 -22.5q-48 -1 -89 8t-75.5 24.5t-63 36t-50.5 44.5q-16 -17 -28.5 -29.5t-22.5 -20.5 q-26 -21 -54 -33.5t-56 -19t-54.5 -8.5t-50.5 -2h-109h-9q-32 0 -55 22.5t-23 55.5z"/>
    <glyph glyph-name="uniFEDE" unicode="ل" horiz-adv-x="1490" arabic-form="final" d="M317 332q-27 -52 -48 -116q-18 -55 -33 -130.5t-15 -167.5q0 -70 20 -126.5t52.5 -100.5t74 -76t85 -53t84.5 -31t73 -10q48 0 104.5 7t113 24.5t108.5 47.5t92.5 77.5t64.5 113.5t24 155q0 73 -2 172t-5 213t-7.5 236.5t-9 243t-9 232.5t-8.5 204t-7 158.5t-4 95.5 q44 1 79 3.5t77 4.5q7 -174 15 -360q3 -79 7 -168.5t7.5 -184t7 -191t6.5 -189.5q5 -67 31 -120q11 -23 27.5 -44.5t39.5 -38t54 -27t72 -10.5q33 0 56 -23.5t23 -55.5q0 -33 -23 -55t-56 -22q-68 0 -118 15.5t-99 43.5q0 -14 0.5 -32t1 -37t0.5 -36v-28 q0 -122 -30.5 -212.5t-82 -155t-118.5 -106t-141 -65.5t-149 -33t-142 -9q-65 0 -131 14t-126.5 43t-113 74t-91.5 106.5t-61 140t-22 175.5q0 115 14 201.5t32.5 147t37.5 96.5t29 51z"/>
    <glyph glyph-name="uni0645" unicode="م" horiz-adv-x="1178" arabic-form="isolated" d="M153 -711l-36 908q0 12 2 33.5t9 47t21.5 51t40.5 43.5q16 14 41.5 24t61.5 10q17 0 39.5 -4t51.5 -12q14 41 31 83t38 83q60 112 122 175q96 94 205 90q76 -3 138.5 -34t107.5 -89q32 -46 53.5 -110t27.5 -130q1 -11 1 -21.5v-21.5q0 -54 -9 -105.5t-29 -99.5 q-26 -66 -69.5 -106.5t-93.5 -51.5q-26 -3 -58.5 2t-75.5 18t-97.5 34t-124.5 50v-1q-56 24 -113.5 46.5t-105.5 38.5q-10 3 -27 8t-25 0q-5 -6 -5.5 -14t-0.5 -31l35 -914h-156zM611 302q46 -20 90 -37t82 -31q40 -14 64 -20t33 -7q18 7 31.5 33t22.5 58.5t13.5 65.5 t4.5 54q0 44 -12 89q-15 53 -38 84.5t-47.5 47.5t-46.5 20.5t-34 4.5q-40 1 -88.5 -48t-91.5 -133q-14 -28 -28 -61t-36 -88z"/>
    <glyph glyph-name="uniFEE3" unicode="م" horiz-adv-x="1138" arabic-form="initial" d="M-77 98q0 32 23 54t55 24h-1q88 0 149.5 28.5t106.5 75.5t78.5 107.5t65.5 124.5q26 54 51.5 102.5t57.5 86.5q86 103 203 103q142 0 236 -114q37 -45 60 -104.5t32 -125t2.5 -131t-28.5 -120.5q-27 -66 -72 -110.5t-102 -59.5q-35 -9 -76 -9q-75 0 -165 36 q-97 39 -212 123q-7 -7 -12 -11.5t-7 -6.5q-148 -151 -367 -151q-33 0 -55.5 23t-22.5 55zM478 319q43 -32 87.5 -56.5t86 -41.5t78 -26t62.5 -9q10 0 19.5 1t19.5 4h-1q29 11 48 48t25 85.5t-1.5 103t-30.5 101.5t-62.5 79.5t-96.5 37.5q-25 2 -45 -10t-39.5 -37.5 t-40.5 -64.5t-47 -91z"/>
    <glyph glyph-name="uniFEE4" unicode="م" horiz-adv-x="1150" arabic-form="medial" d="M834 213q43 43 42 139v0v1q-1 18 -1 34l-1 2v10q-10 94 -64 168q-59 78 -132 78q-51 0 -104 -79q-21 -31 -45 -78l-21 -43l-20 -43q-7 -14 -20 -35l-10 -15l-9 -15l-8 -15l14 -9l1 -1l2 -1q2 -2 6 -4q9 -7 20 -13q33 -21 65 -39q102 -58 165 -70q20 -3 37 -3q52 0 83 31z M1143 178q33 0 56 -23t23 -56t-23 -56t-56 -23q-109 0 -180 92l-15 19l-14 -19q-29 -38 -63 -60q-46 -29 -100 -29q-14 0 -28 2q-120 17 -261 86q-44 22 -85 47q-13 7 -24 14q-4 3 -7 5l-1 1h-1l-16 11l-10 -16h-1l-1 -2q-1 -2 -3 -5q-7 -8 -15 -17q-26 -29 -60 -53 q-47 -32 -102 -51q-73 -25 -157 -25q-33 0 -56 23t-23 56t23 56t56 23q137 0 244 126q39 46 76 111q14 24 28 54l13 25l5 12l6 12q13 27 18 38l2 3l23 46q14 24 25 44q29 47 58 78q73 78 181 78q128 0 221 -106q89 -101 112 -253q6 -45 3 -94v-1l1 -2q5 -43 20 -78 q12 -26 29 -47q37 -46 79 -46z"/>
    <glyph glyph-name="uniFEE2" unicode="م" horiz-adv-x="1225" arabic-form="final" d="M851 190q39 0 67 59q27 55 28 123v12v1l-1 14q-10 96 -56 165q-54 81 -135 81h-8q-71 -4 -136 -106q-29 -45 -55 -106q-20 -47 -36 -99l-5 -15l15 -7v-1h2q2 -2 5 -3q10 -4 20 -9q35 -16 71 -31q117 -49 212 -76q6 -2 12 -2zM1214 178q33 0 56 -23t23 -56t-23 -56 t-56 -23q-111 0 -180 83l-15 18l-14 -19q-25 -32 -54 -52q-38 -26 -81 -26q-28 0 -57 10q-109 38 -329 119q-68 25 -140 52q-23 8 -43 16q-7 2 -12 4l-3 2h-2l-26 10l35 -959q-18 -1 -36 -3q-24 -1 -45 -2q-56 -4 -80 -4q-1 9 -1 20q-1 13 -1 27q-2 35 -3 73q-5 103 -9 206 q-13 303 -23 542q-5 139 58 205q45 47 119 47q35 0 74 -10l16 -5l6 16q66 175 148 278q107 137 233 137q128 0 221 -106q89 -101 112 -253q6 -44 3 -93v-1l1 -2q9 -81 52 -130q37 -42 76 -42z"/>
    <glyph glyph-name="uni0647" unicode="ه" horiz-adv-x="974" arabic-form="isolated" d="M485 16q-5 0 -23.5 1t-47 5.5t-63 13.5t-70.5 26q-89 42 -135.5 113t-46.5 168q0 85 40 177t118 187q31 37 67 72.5t65 62.5q-29 25 -44 39t-21.5 21t-7.5 8t-2 0l107 114q13 -12 36.5 -33t52.5 -49t61.5 -60.5t63.5 -66.5q117 -134 177.5 -254t60.5 -218q0 -97 -43 -168 t-125 -112q-31 -15 -62.5 -24t-60.5 -14.5t-54 -7t-43 -1.5zM473 719q-30 -26 -70 -68.5t-76 -93t-61 -106t-25 -107.5q0 -34 23.5 -72t84.5 -67h-1q21 -10 42 -16t39.5 -9t33 -4t22.5 -1q10 0 27 0.5t37.5 3.5t43 8.5t42.5 15.5q43 23 69 53.5t26 81.5q0 34 -16.5 76.5 t-46 91t-70.5 101.5t-90 107l-18 20z"/>
    <glyph glyph-name="uniFEEB" unicode="ه" horiz-adv-x="1473" arabic-form="initial" d="M-82 99q0 32 24 54.5t58 22.5h9q68 0 120 1.5t94 4.5t76.5 7t66.5 9q-87 85 -129.5 167t-42.5 158q0 53 15.5 111t47.5 111t82.5 95.5t120.5 65.5l-107 41l77 144q48 -18 89 -34t80 -31.5t78.5 -31t83.5 -31.5q91 -40 178 -81.5t161.5 -83.5t131 -84.5t86.5 -83.5 q88 -121 88 -248q0 -93 -49.5 -173.5t-149.5 -134.5l1 1q-27 -16 -65 -27t-80 -18t-84.5 -10t-76.5 -3q-87 0 -169 13t-167 48q-51 -16 -118 -27t-140.5 -18t-150 -10t-148.5 -3h-9q-34 0 -58 23t-24 56zM938 571q0 -45 -13.5 -96.5t-38 -103.5t-59.5 -100.5t-78 -87.5 q45 -9 77.5 -11.5t56.5 -2.5h48q81 0 142.5 18t103 49t62 72t20.5 86q0 40 -23 87.5t-67.5 94.5t-109 91t-148.5 78q21 -51 24.5 -93t2.5 -69v-12zM642 801q-7 2 -13.5 3t-11.5 0q-65 -6 -118 -33.5t-89 -68.5t-52.5 -91.5t-8.5 -103.5q6 -39 24.5 -76t45.5 -70t61.5 -61.5 t72.5 -50.5q56 24 97.5 61.5t68.5 82t40.5 93t13.5 93.5q0 41 -9.5 79t-26.5 68.5t-41 50.5t-53 24h-1z"/>
    <glyph glyph-name="uniFEEC" unicode="ه" horiz-adv-x="1005" arabic-form="medial" d="M510 725q-28 -3 -56 -27t-53 -61t-46 -85t-36.5 -99t-24.5 -102.5t-9 -96.5q0 -14 1.5 -30.5t3.5 -33.5q15 -2 28.5 -3t18.5 -1q64 0 116 29.5t88.5 76.5t56 105.5t19.5 116.5q0 62 -22 116.5t-71 90.5zM-79 98q0 32 22.5 55t55.5 23h133q-3 58 6.5 131.5t30.5 151.5 t53.5 153.5t75.5 136t96.5 100t117.5 45.5q60 0 106.5 -39.5t79 -101.5t49.5 -136.5t17 -143.5q0 -45 -7 -83t-21 -67q-22 -63 -63 -112t-95 -85t-118.5 -59.5t-134.5 -35.5q13 -33 36 -80.5t54.5 -96.5t70 -93.5t82.5 -70.5q-5 65 10 126.5t45 115.5t73 99t93.5 77 t105.5 50t110 18q33 0 56 -23t23 -55q0 -33 -23 -55.5t-56 -22.5h-9q-62 -3 -116.5 -32.5t-96 -76.5t-65.5 -106t-24 -121q0 -51 17.5 -99t57.5 -92l-104 -125q-101 63 -180 136.5t-139 153t-102 161.5t-68 162l-14 39h-163q-33 0 -55.5 22.5t-22.5 55.5z"/>
    <glyph glyph-name="uniFEEA" unicode="ه" horiz-adv-x="1090" arabic-form="final" d="M544 160q-249 0 -344 118q-27 33 -37.5 72t-10.5 75q0 32 5 58t13 43q26 54 63 99.5t80 82.5t88.5 66.5t89 52t82 38t67.5 26.5l-15 145l157 34q1 -8 3.5 -35t6.5 -63t8 -76.5t8 -76t7 -62t4 -33.5v1q15 -131 28.5 -214t23.5 -132t17 -70.5t10 -28.5v1q13 -31 30.5 -51 t40.5 -32t52.5 -17t68.5 -5q32 0 55.5 -22.5t23.5 -55.5q0 -32 -23.5 -55t-55.5 -23q-38 0 -88 6t-99 29h1q-75 35 -131 126q-135 -21 -229 -21zM634 720q-25 -11 -59.5 -26t-71 -34.5t-72.5 -43t-64.5 -51t-46 -59.5t-17.5 -67q0 -37 20.5 -61t53.5 -38.5t75 -20t86 -5.5 q46 0 95 5.5t86 12.5q-14 69 -28.5 170t-30.5 228z"/>
    <glyph glyph-name="uni0648" unicode="و" horiz-adv-x="1051" arabic-form="isolated" d="M518 670q-24 0 -48.5 -14t-47 -37.5t-42 -54.5t-33.5 -65.5t-22 -69.5t-8 -67q0 -33 10.5 -60t25.5 -46v1q32 -31 70.5 -47.5t79 -23.5t81 -7.5t77.5 -0.5q32 0 69 1.5t60 3.5q-3 70 -16 132.5t-32.5 115.5t-44 95.5t-51.5 72.5q-11 12 -25 24.5t-30.5 23t-34.5 17 t-38 6.5zM101 -525q152 33 273.5 92t208.5 132.5t138 156.5t63 164h-77q-58 -3 -126.5 1.5t-133 20t-119 44t-84.5 74.5v-1q-32 41 -46.5 92t-14.5 108q0 46 9.5 93.5t25 93.5t37 87t45.5 74q46 57 103 88.5t115 31.5q133 0 246 -122v1q43 -48 77 -108.5t58 -129.5 t36.5 -144.5t12.5 -153.5q0 -113 -30.5 -215.5t-85 -191t-130 -162t-165.5 -130t-191.5 -95t-207.5 -55.5z"/>
    <glyph glyph-name="uniFEEE" unicode="و" horiz-adv-x="1043" arabic-form="final" d="M102 -525q152 33 273.5 92t208.5 132.5t138 156.5t63 164h-77q-37 0 -77.5 1t-79.5 4q-207 14 -306 135v-1q-32 41 -46.5 92t-14.5 108q0 46 9.5 93.5t25 93.5t37 87t45.5 74q46 57 103 88.5t115 31.5q133 0 246 -122v1q41 -46 74 -105t56.5 -127.5t37.5 -144t16 -153.5 h94q33 0 56.5 -22.5t23.5 -56.5q0 -32 -23.5 -54.5t-56.5 -22.5h-107q-29 -146 -105 -264.5t-183 -207t-238 -146t-271 -81.5zM519 670q-37 0 -73 -30.5t-64.5 -76t-46.5 -99.5t-18 -102q0 -33 10 -60t25 -46v1q17 -22 44.5 -36t57.5 -22.5t58.5 -12.5t48.5 -5 q56 -3 117.5 -3t112.5 5q-3 70 -16 132.5t-32.5 115.5t-44 95.5t-51.5 72.5q-11 12 -25 24.5t-30.5 23t-34.5 17t-38 6.5z"/>
    <glyph glyph-name="uni0649" unicode="ى" horiz-adv-x="1733" arabic-form="isolated" d="M1375 812q28 6 54 8.5t50 2.5q37 0 70.5 -4.5t61.5 -11t50 -14t36 -12.5q-10 -21 -19 -39t-17 -35t-16.5 -34.5t-18.5 -38.5q-21 8 -59 16.5t-84 8.5q-18 0 -37 -1.5t-37 -5.5h2q-40 -4 -82 -23t-82.5 -49.5t-76.5 -69.5t-63.5 -83t-43.5 -90t-16 -90q0 -35 10 -66 q11 -32 35.5 -53.5t57.5 -37t72.5 -26.5t80.5 -20q52 -12 105 -28t95 -42.5t68.5 -68.5t26.5 -107q0 -28 -6 -64v1q-17 -94 -84 -172t-179 -134q-108 -55 -245.5 -83.5t-298.5 -28.5q-183 0 -325.5 54t-232.5 152q-63 74 -97.5 171t-34.5 206q0 23 1.5 47.5t4.5 49.5 q12 85 32.5 177.5t43 174t42 144t28.5 88.5q40 -14 78 -28t75 -27q-21 -64 -41 -133t-38 -139.5t-32.5 -140.5t-24.5 -135q-2 -17 -3.5 -37t-1.5 -41q0 -32 5 -66.5t16 -69.5t28.5 -68.5t41.5 -62.5q68 -72 179.5 -111.5t255.5 -39.5q147 0 264 24t200.5 64t130 91t51.5 105 q2 24 -13 41.5t-41 31.5t-60 24t-68 19q-50 13 -106 30t-105.5 44.5t-86 68.5t-48.5 101q-10 50 -10 100q0 102 37.5 198t102.5 175t153 135.5t189 77.5z"/>
    <glyph glyph-name="uniFEF0" unicode="ى" horiz-adv-x="1715" arabic-form="final" d="M830 -632q-85 0 -176 8.5t-175 33t-154 70t-114 120.5q-93 135 -93 351v23.5t1 24.5q7 133 46 287.5t115 339.5q40 -16 74 -30t71 -29q-72 -181 -110.5 -340.5t-38.5 -279.5q0 -162 65 -259q29 -42 67 -70t81 -46.5t88.5 -28t90.5 -13.5t86.5 -4.5t75.5 -0.5q30 0 85 5 t119.5 17t131 32t120.5 49t88.5 69t34.5 93q0 14 -11.5 33.5t-37.5 41t-68 45t-102 45.5q-36 12 -70.5 22.5t-65.5 18.5t-56.5 14t-41.5 9h-3l11 158l752 -1q32 0 55.5 -22.5t23.5 -55.5t-23.5 -55.5t-55.5 -22.5h-295q45 -37 73 -70.5t44.5 -62.5t22 -53.5t5.5 -43.5 q-1 -81 -38 -144t-97 -110t-137.5 -79t-158.5 -52t-160.5 -28.5t-144.5 -8.5z"/>
    <glyph glyph-name="uni066E.init" unicode="ٮ" horiz-adv-x="700" d="M-85 98q0 33 23 55.5t55 22.5h103q11 0 22.5 -0.5t22.5 -0.5q48 0 92.5 5t82 19t66.5 40t48 67v-1q16 33 16 88q0 94 -44 235q-8 25 -19.5 54t-22.5 56.5t-21.5 50.5t-16.5 37l142 71q6 -14 16 -36t22 -51t24.5 -63t24.5 -71q26 -81 39 -151t13 -130q0 -88 -28 -153 q-35 -73 -95.5 -125.5t-144.5 -75.5q-52 -15 -101.5 -18t-94.5 -3h-146q-32 0 -55 22.5t-23 55.5z"/>
    <glyph glyph-name="uni066E.medi" unicode="ٮ" horiz-adv-x="705" d="M-74 98q0 32 22.5 55t55.5 23h17q178 0 262 63.5t84 192.5q0 27 -2.5 52.5t-7.5 53t-12 58.5t-17 68q42 11 75.5 21.5t73.5 21.5q23 -86 35.5 -156.5t14.5 -134.5q2 -57 8.5 -101.5t25 -75t52.5 -47t91 -16.5q32 0 55.5 -23t23.5 -55q0 -33 -23 -55.5t-55 -22.5 q-48 0 -87.5 10t-73 27.5t-61 42t-50.5 54.5q-69 -67 -169.5 -100.5t-242.5 -33.5h-17q-33 0 -55.5 22.5t-22.5 55.5z"/>
    <glyph glyph-name="uni066E.fina" unicode="ٮ" horiz-adv-x="2316" d="M1938 177q-38 45 -69 133q-281 -293 -841 -293q-299 2 -494 70t-282 215q-35 58 -49.5 120t-14.5 123q0 38 5 74.5t13 68.5q17 70 36 119t30 72q38 -21 70 -39.5t69 -38.5q-6 -15 -18 -40t-23 -57.5t-19.5 -70t-8.5 -76.5q0 -41 10 -84t32 -81q32 -52 90.5 -92 t140.5 -67.5t186 -42t227 -14.5q223 0 382.5 40t264.5 126l-1 -1q45 36 78.5 78t57.5 87t41 90.5t30 89.5q42 -11 77 -21t75 -21q-5 -20 -9 -36.5t-10 -43.5q-12 -59 -11 -105q2 -45 14 -95t46 -91l-1 1q78 -98 254 -98q33 0 56 -22.5t23 -55.5t-23 -55.5t-56 -22.5h-8 q-251 3 -369 156z"/>
    <glyph glyph-name="uni066F.init" unicode="ٯ" horiz-adv-x="895" d="M428 947q-17 0 -43 -13.5t-52.5 -41t-48.5 -69t-31 -96.5v1q-3 -16 -4 -33.5t1.5 -35t8 -33t16.5 -27.5h-1q11 -14 31.5 -26t46.5 -21.5t55.5 -15.5t58.5 -8q26 -2 50 -2h46q21 0 48.5 0.5t60.5 3.5q-4 54 -15.5 106t-29 98.5t-40.5 85.5t-50 68v-1q-9 10 -21 20.5 t-25.5 19.5t-29.5 14.5t-32 5.5zM-81 98q0 33 23.5 55.5t56.5 22.5q140 0 246.5 9.5t186 32t135 59.5t93.5 91h-154q-51 0 -99.5 8.5t-91.5 25t-78.5 40t-60.5 53.5q-18 15 -30 44.5t-19 65.5t-7.5 74t4.5 70q13 73 39.5 135t63.5 110q42 55 93.5 83t107.5 28 q123 0 225 -111q39 -43 70 -98t52.5 -117.5t33 -130.5t11.5 -137q0 -99 -30 -174.5t-83.5 -130.5t-128 -91t-164 -57.5t-191.5 -30t-209 -7.5h-17q-32 0 -55 23t-23 55z"/>
    <glyph glyph-name="uni066F.medi" unicode="ٯ" horiz-adv-x="1019" d="M508 761q-30 0 -67 -16.5t-69.5 -50t-54 -83.5t-21.5 -116q0 -27 15 -59.5t43.5 -65.5t70 -64t94.5 -55q43 19 75.5 48t55 63.5t34 71.5t11.5 72q0 48 -17 94t-44 82t-60.5 57.5t-65.5 21.5zM-78 98q0 34 22.5 56t55.5 22q36 0 75.5 1.5t80 4t79.5 6.5t74 9 q-39 34 -68 71.5t-48.5 75.5t-29 75.5t-9.5 72.5q0 75 26.5 150t73.5 135.5t112 99t143 41.5q79 -5 141 -39.5t104.5 -88t64.5 -121.5t22 -139q0 -81 -33 -164.5t-102 -158.5q77 -16 160 -23.5t152 -7.5q34 0 56.5 -22t22.5 -56q0 -33 -22.5 -55.5t-56.5 -22.5h-9 q-30 0 -63 1t-67 3.5t-66.5 5.5t-61.5 8q-61 10 -117.5 23t-110.5 31q-47 -18 -105 -31.5t-124 -22.5t-138.5 -13.5t-147.5 -4.5h-8q-33 0 -55.5 22.5t-22.5 55.5z"/>
    <glyph glyph-name="uni066F.fina" unicode="ٯ" horiz-adv-x="1570" d="M1022 668q-45 0 -94 -61l1 1q-31 -38 -56 -90t-36 -113q-2 -14 -3 -26.5t-1 -25.5q0 -30 7 -55.5t22 -43.5q17 -21 43.5 -34.5t55 -21.5t56 -12t46.5 -6q48 -2 91 -3t78 -1h62q-3 71 -16 134.5t-32.5 117t-44 96.5t-51.5 74q-11 12 -24.5 24t-30 22.5t-35 17t-38.5 6.5z M1232 17q-38 0 -82.5 1.5t-95.5 4.5q-102 8 -180 43t-126 92q-29 40 -46.5 90.5t-17.5 105.5q0 35 8 81q13 80 41.5 148.5t70.5 120.5q96 122 218 122q134 0 245 -122q42 -46 75 -104.5t56 -126t36.5 -142.5t16.5 -153q20 -1 54.5 -1.5t65.5 -0.5q32 0 55.5 -22.5 t23.5 -55.5q0 -32 -23.5 -55t-55.5 -23h-9h-122q-5 -27 -12 -60.5t-18 -70.5t-25.5 -75.5t-33.5 -75.5q-80 -153 -208 -244h1q-162 -111 -387 -111q-96 0 -180 18.5t-159 56.5q-76 38 -133.5 91t-99.5 122q-42 71 -64 154.5t-22 177.5q0 13 0.5 28.5t1.5 29.5q10 104 46 224 t96 238l140 -74q-63 -122 -94.5 -234.5t-31.5 -212.5q0 -142 63 -248q63 -103 174 -157.5t263 -54.5q154 0 267.5 69t183.5 194q27 50 45 107.5t28 104.5h-49z"/>
    <glyph glyph-name="uniFBA8" unicode="ہ" horiz-adv-x="728" arabic-form="initial" d="M-78 98q0 33 23 55.5t55 22.5h58q11 0 22.5 -0.5t22.5 -0.5q48 0 92.5 5t82 19t66.5 40t48 67v-1q16 33 16 88q0 94 -44 235q-8 25 -19.5 54t-22.5 56.5t-21.5 50.5t-16.5 37l141 74q6 -13 16 -35.5t22 -51.5t25 -64t25 -73q26 -81 39 -151t13 -130q0 -88 -28 -153 q-35 -73 -95.5 -125.5t-144.5 -75.5q-52 -15 -101.5 -18t-94.5 -3h-92h-9q-32 0 -55 22.5t-23 55.5zM496 -453q-28 3 -55.5 16.5t-49.5 35.5t-36 49.5t-15 59.5q1 40 12 80.5t32.5 83t52.5 89t71 99.5l79 -52q-20 -30 -42 -64.5t-40 -67.5t-30 -62.5t-12 -51.5q0 -34 26 -56 t90 -45z"/>
    <glyph glyph-name="uniFBA9" unicode="ہ" horiz-adv-x="1000" arabic-form="medial" d="M337 272q-8 -43 -11 -84.5t-3 -81.5q0 -233 164 -421q9 49 21 97t28 93t35 85.5t43 73.5q38 54 101.5 89t148.5 47q26 4 48 5t40 1q11 0 27 -0.5t24 -0.5h5v-155q-1 0 -2 0.5t-2 0.5q-6 1 -23 1h-28q-24 0 -54 -3t-59.5 -11.5t-56 -23.5t-43.5 -39q-30 -44 -50.5 -95 t-33 -103.5t-18 -103.5t-5.5 -94q-34 -20 -64.5 -36.5t-63.5 -35.5q-160 102 -245 255h1q-73 131 -91 318q-19 -6 -42 -11t-46.5 -9t-47 -6.5t-42.5 -3.5v155q22 1 43 3.5t40 6.5t33.5 9.5t23.5 13.5l-1 -1q15 12 23.5 30t18.5 44l3 7q4 11 6 19.5t7 17.5zM880 -701 q-28 3 -55.5 16.5t-49.5 35.5t-36 49.5t-15 59.5q1 40 12 80.5t32.5 83t52.5 89t71 99.5l79 -52q-20 -30 -42 -64.5t-40 -67.5t-30 -62.5t-12 -51.5q0 -34 26 -56t90 -45z"/>
    <glyph glyph-name="uni06BE" unicode="ھ" horiz-adv-x="1604" arabic-form="isolated" d="M42 180q0 16 7.5 31.5t21 26.5t32 16t40.5 -1q115 -39 205.5 -52.5t155.5 -2.5q-87 85 -129.5 167t-42.5 158q0 53 15.5 111t47.5 111t82.5 95.5t120.5 65.5l-107 41l77 144q48 -18 89 -33.5t80 -30.5t78.5 -30.5t83.5 -33.5q92 -37 179.5 -78.5t161.5 -84t130 -86 t86 -84.5q88 -121 88 -248q0 -93 -49.5 -173.5t-149.5 -134.5l1 1q-27 -16 -65 -27t-80 -18t-84.5 -10t-76.5 -3q-87 0 -169 13t-167 48q-51 -16 -122.5 -21.5t-150.5 -1.5t-158.5 15.5t-148.5 30.5q-38 11 -60 28.5t-22 50.5zM1076 571q0 -45 -13.5 -96.5t-38 -103.5 t-59.5 -100.5t-78 -87.5q45 -9 77.5 -11.5t56.5 -2.5h48q81 0 142.5 18t103 49t62 72t20.5 86q0 40 -23 87.5t-67.5 94.5t-109 91t-148.5 78q21 -51 24.5 -93t2.5 -69v-12zM780 801q-7 2 -13.5 3t-11.5 0q-65 -6 -118 -33.5t-89 -68.5t-52.5 -91.5t-8.5 -103.5 q6 -39 24.5 -76t45.5 -70t61.5 -61.5t72.5 -50.5q56 24 97.5 61.5t68.5 82t40.5 93t13.5 93.5q0 41 -9.5 79t-26.5 68.5t-41 50.5t-53 24h-1z"/>
    <glyph glyph-name="uni06D2" unicode="ے" horiz-adv-x="1975" arabic-form="isolated" d="M1012 -104q-89 0 -185.5 -1t-191.5 4t-184 20t-162 48q-59 26 -99.5 62t-60.5 75q-8 15 -13 34.5t-5 42.5t8.5 44t25.5 52q26 47 77.5 82t117 60t138 42t139.5 27.5t122 15.5t86 8l-36 -147q-20 -1 -49 -5q-26 -3 -64.5 -8.5t-92.5 -13.5t-106.5 -22t-96 -31t-74.5 -37 t-43 -40q-10 -15 -10 -24t2 -14q7 -21 32.5 -38.5t65.5 -32t93.5 -26t117.5 -19.5q14 -2 47.5 -3t76 -2t90 -1.5t91.5 -0.5h79h53q79 0 171 5.5t186 14t184.5 18.5t167 20t134 18t84.5 12l-23 -87q-4 -14 -9 -34.5t-8 -35.5l-52.5 -7.5t-116.5 -15.5t-160.5 -19.5 t-184.5 -19t-189 -14.5t-173 -6z"/>
    <glyph glyph-name="uniFBAF" unicode="ے" horiz-adv-x="1499" arabic-form="final" d="M809 -452q-69 0 -141.5 2.5t-145 10.5t-142.5 24.5t-135 43.5q-59 26 -102.5 61.5t-63.5 75.5q-8 15 -13 35t-5 43q0 24 7.5 52t27.5 59q38 61 108.5 103.5t163.5 68.5t202.5 37.5t225.5 11.5h704q32 0 55 -23t23 -55t-23 -55t-55 -23h-5h-699q-138 0 -238.5 -14.5 t-169 -36.5t-108.5 -48.5t-58 -50.5l1 1q-9 -14 -10.5 -22.5t0.5 -11.5q26 -37 84 -62t137.5 -40.5t176 -22t198.5 -6.5q49 0 107 0.5t116.5 1t115.5 1.5t105 2.5t83.5 2.5t52.5 3l43 -150q-8 -1 -43.5 -3t-87.5 -4t-116.5 -4t-130.5 -4t-130 -3t-115 -1z"/>
    <glyph glyph-name="uni06A9" unicode="ک" horiz-adv-x="2059" arabic-form="isolated" d="M2110 1472l-796 -320q96 -80 193 -163t175.5 -169t128 -175t49.5 -180q0 -51 -19.5 -107.5t-57.5 -112.5q-6 -8 -18 -22t-32.5 -31t-50.5 -37t-72 -39h1q-74 -33 -152.5 -52.5t-158.5 -29t-161.5 -11.5t-162.5 0q-174 4 -318 23.5t-250 56.5q-97 39 -166 94.5t-103 125.5 q-40 76 -40 168q0 44 10 92.5t28 97.5q20 51 41.5 89t34.5 58q32 -24 63.5 -47t63.5 -46q-23 -40 -36 -64.5t-22 -49.5q-25 -68 -25 -129q0 -27 5.5 -51t16.5 -46q26 -51 86 -90.5t149.5 -66.5t206.5 -41.5t257 -15.5q76 -6 159.5 -0.5t158.5 16.5t135 26t89 27 q104 36 153.5 89.5t49.5 115.5q0 45 -21.5 93.5t-57.5 98t-83.5 98.5t-98.5 95.5t-103 89t-98 79.5q-19 14 -35 28t-31 26q5 53 11.5 104t11.5 103l830 346z"/>
    <glyph glyph-name="uniFB8F" unicode="ک" horiz-adv-x="2321" arabic-form="final" d="M2320 176q33 0 55.5 -22.5t22.5 -55.5q0 -32 -22.5 -55t-55.5 -23q-161 0 -298 67.5t-231 198.5q-40 -68 -94 -108t-108 -66h1q-103 -47 -238 -69.5t-303 -22.5h-92q-106 0 -199 9q-71 7 -142.5 17.5t-140.5 28.5t-133.5 47t-120.5 74q-30 23 -55 54.5t-48 73.5l2 -2 q-19 39 -30 84.5t-11 95.5q0 42 8.5 86t28.5 90q22 51 43.5 89.5t33.5 59.5l127 -94q-15 -25 -26 -47q-10 -19 -19 -38.5t-12 -29.5v1q-25 -68 -25 -128q0 -52 22 -98q42 -81 162 -133t311 -72q30 -2 62 -4t62.5 -3t58.5 -1.5t49 -0.5q23 -1 44.5 -1.5t41.5 -0.5 q84 0 153.5 6.5t125 16.5t98 22.5t72.5 23.5q104 40 148 96t44 124q0 54 -25.5 112t-67 116.5t-95 114.5t-108.5 106.5t-107 93t-92 73.5q5 48 10 92.5t10 91.5l868 373l59 -145l-806 -341q89 -62 168.5 -132t144.5 -144t112.5 -151t72.5 -152q17 -49 37 -100t50.5 -98 t74 -88.5t107.5 -71.5q83 -39 207 -40h8z"/>
    <glyph glyph-name="uni06AF" unicode="گ" horiz-adv-x="2111" arabic-form="isolated" d="M2110 1470l-796 -320q96 -80 193 -163t175.5 -169t128 -175t49.5 -180q0 -51 -19.5 -107.5t-57.5 -112.5q-6 -8 -18 -22t-32.5 -31t-50.5 -37t-72 -39h1q-74 -33 -152.5 -52.5t-158.5 -29t-161.5 -11.5t-162.5 0q-174 4 -318 23.5t-250 56.5q-97 39 -166 94.5t-103 125.5 q-40 76 -40 168q0 44 10 92.5t28 97.5q20 51 41.5 89t34.5 58q32 -24 63.5 -47t63.5 -46q-23 -40 -36 -64.5t-22 -49.5q-25 -68 -25 -129q0 -27 5.5 -51t16.5 -46q26 -51 86 -90.5t149.5 -66.5t206.5 -41.5t257 -15.5q76 -6 159.5 -0.5t158.5 16.5t135 26t89 27 q104 36 153.5 89.5t49.5 115.5q0 45 -21.5 93.5t-57.5 98t-83.5 98.5t-98.5 95.5t-103 89t-98 79.5q-19 14 -35 28t-31 26q5 53 11.5 104t11.5 103l830 346zM1993 1766q-199 -84 -390.5 -165t-390.5 -165q2 30 3.5 53.5t3.5 52.5l735 307z"/>
    <glyph glyph-name="uniFB94" unicode="گ" horiz-adv-x="987" arabic-form="initial" d="M-84 97q0 34 24.5 56.5t63.5 22.5h56h49q62 0 129 2t128.5 13t112.5 35.5t81 69.5q43 65 43 149q0 47 -15 104q-7 28 -29.5 66.5t-55.5 83t-76 94t-92 99.5t-102.5 99t-108.5 94q5 48 10.5 92t10.5 90q201 86 396 169.5t396 169.5q16 -38 32 -73.5t31 -71.5l-728 -306 q57 -48 121.5 -105.5t122.5 -122.5q67 -74 112.5 -142.5t73.5 -131t40 -119t12 -105.5q0 -64 -16.5 -117.5t-40.5 -97.5h1q-85 -151 -288 -188q-20 -4 -41 -5.5t-42 -1.5l-323 1q-38 0 -63 22.5t-25 54.5zM888 1746q-199 -84 -390.5 -165t-390.5 -165q2 30 3.5 53.5 t3.5 52.5l735 307z"/>
    <glyph glyph-name="uniFB95" unicode="گ" horiz-adv-x="1187" arabic-form="medial" d="M-78 98q0 32 23.5 55t55.5 23h9h330q43 0 85.5 18t78 47.5t59.5 67t29 76.5q3 57 -17 121t-55.5 128.5t-83 128.5t-99 121.5t-104 106t-98.5 84.5q5 51 11.5 100t12.5 99l854 368q16 -38 32 -73.5t31 -71.5l-807 -339q94 -77 161.5 -150t118 -143.5t89 -139.5t75.5 -138 q25 -47 50.5 -94.5t54.5 -95.5q31 -51 65 -91t75 -68.5t89.5 -44t107.5 -17.5h43q33 0 55.5 -23t22.5 -55q0 -33 -22.5 -55.5t-55.5 -22.5h-8q-70 0 -123 8.5t-104 25.5h1q-68 25 -131 80.5t-115 121.5q-24 -44 -47.5 -77t-49.5 -57h1q-63 -56 -140 -77t-156 -25h1h-326 q-32 0 -55.5 22.5t-23.5 55.5zM940 1787q-199 -84 -390.5 -165t-390.5 -165q2 30 3.5 53.5t3.5 52.5l735 307z"/>
    <glyph glyph-name="uniFB93" unicode="گ" horiz-adv-x="2309" arabic-form="final" d="M2320 176q33 0 55.5 -22.5t22.5 -55.5q0 -32 -22.5 -55t-55.5 -23q-161 0 -298 67.5t-231 198.5q-40 -68 -94 -108t-108 -66h1q-103 -47 -238 -69.5t-303 -22.5h-92q-106 0 -199 9q-71 7 -142.5 17.5t-140.5 28.5t-133.5 47t-120.5 74q-30 23 -55 54.5t-48 73.5l2 -2 q-19 39 -30 84.5t-11 95.5q0 42 8.5 86t28.5 90q22 51 43.5 89.5t33.5 59.5l127 -94q-15 -25 -26 -47q-10 -19 -19 -38.5t-12 -29.5v1q-25 -68 -25 -128q0 -52 22 -98q42 -81 162 -133t311 -72q30 -2 62 -4t62.5 -3t58.5 -1.5t49 -0.5q23 -1 44.5 -1.5t41.5 -0.5 q84 0 153.5 6.5t125 16.5t98 22.5t72.5 23.5q104 40 148 96t44 124q0 54 -25.5 112t-67 116.5t-95 114.5t-108.5 106.5t-107 93t-92 73.5q5 48 10 92.5t10 91.5l868 373l59 -145l-806 -341q89 -62 168.5 -132t144.5 -144t112.5 -151t72.5 -152q17 -49 37 -100t50.5 -98 t74 -88.5t107.5 -71.5q83 -39 207 -40h8zM2047 1794l-850 -370q2 30 3.5 54t3.5 53q203 87 402 173t402 173z"/>
    <glyph glyph-name="uni06BA" unicode="ں" horiz-adv-x="1630" arabic-form="isolated" d="M767 -668q-149 3 -267.5 45t-201.5 120t-127 191.5t-44 259.5q0 77 13.5 156.5t36 154.5t52 142t61.5 120l128 -94q-18 -28 -41 -79t-43 -116t-34 -140t-14 -150q0 -46 7.5 -97t27.5 -100t54.5 -94t88.5 -79.5t129 -56t177 -24.5q137 -4 243 31.5t178 103t109.5 163.5 t37.5 215q0 88 -17.5 169t-42 149t-50.5 119t-43 78l139 89q9 -14 25 -43.5t35.5 -71.5t39.5 -95t36 -115t26.5 -131t10.5 -143q0 -159 -54 -286.5t-151 -216t-231 -134.5t-294 -40z"/>
    <glyph glyph-name="uniFB9F" unicode="ں" horiz-adv-x="1709" arabic-form="final" d="M1707 20q-129 0 -261 78q0 -6 0.5 -18t1 -24.5t1 -24.5t0.5 -18q0 -63 -9 -128.5t-29 -130.5q-40 -110 -111 -189t-161.5 -131t-194.5 -76.5t-210 -24.5q-273 0 -435 123.5t-210 375.5v-1q-15 89 -7 183t31 185t57.5 173.5t73.5 148.5q36 -26 64.5 -48t62.5 -46 q-15 -24 -32.5 -63t-34 -87t-31 -102t-24 -110t-11.5 -110t7 -102v2q-3 -34 9.5 -74.5t40 -81t68.5 -78.5t95.5 -67t122 -46.5t146.5 -17.5q104 0 192 22.5t156 63t115 98t70 128.5q17 52 23.5 103t6.5 102q0 61 -9 120t-23.5 113t-32.5 102t-35 88q-20 41 -29 61t-17 34 l133 84q3 -4 16.5 -30.5t42.5 -86.5q57 -108 108 -171t97 -95t87 -41t79 -9q33 0 56 -22.5t23 -55.5q0 -32 -23 -55t-56 -23z"/>
    <glyph glyph-name="uniFEAA" unicode="د" horiz-adv-x="1253" arabic-form="final" d="M490 20q-54 0 -107.5 11.5t-104 33t-97 53t-85.5 70.5q25 35 46 63.5t45 62.5q79 -68 165.5 -101t162.5 -33q38 0 83 7.5t80 21.5q26 10 52.5 23t50.5 26t42.5 25.5t29.5 23.5l-313 754q41 17 73.5 31t70.5 30q30 -74 76 -183q38 -94 97.5 -236t141.5 -340 q17 -43 33 -77.5t42.5 -59t67.5 -37.5t107 -13q32 0 55.5 -22.5t23.5 -55.5t-23.5 -55.5t-55.5 -22.5q-62 0 -111 11t-87.5 30.5t-68 45t-51.5 54.5q-17 -13 -40.5 -26.5t-50 -26t-53.5 -24.5t-51 -22h1q-54 -21 -113.5 -31.5t-133.5 -10.5z"/>
    <glyph glyph-name="uni06C1" unicode="ہ" horiz-adv-x="1313" arabic-form="final" d="M1313 176q32 0 55 -23t23 -55t-23 -55t-55 -23q-74 0 -132.5 22.5t-108 60t-92.5 85t-86 97.5q-34 40 -68 77.5t-71 66.5t-76.5 47t-84.5 18q-41 0 -84 -13h1q-51 -18 -93.5 -60.5t-77.5 -101t-62.5 -130t-48.5 -149.5l-150 40q25 96 59 184.5t80 161.5t106.5 126 t139.5 77q36 11 68.5 16t61.5 5q70 0 128.5 -23t109 -60.5t94.5 -84.5t86 -95q32 -37 66.5 -74.5t72 -68t78 -49.5t84.5 -19z"/>
    <glyph glyph-name="uni0686" unicode="چ" horiz-adv-x="1598" arabic-form="isolated" d="M891 -608q141 0 267 39.5t248 124.5l90 -129q-142 -95 -302 -147t-341 -52q-150 0 -282 40.5t-230.5 118.5t-155.5 191t-57 257v21t1 22q6 102 46 195.5t110 174t168 146t219 111t263 68.5t301 20q-36 19 -78 50t-88 65.5t-95.5 69.5t-101.5 63.5t-106 46t-108 17.5 t-101.5 -22t-88.5 -56t-75 -74.5t-60 -76.5q-12 8 -21 13.5t-16.5 10.5l-15 10t-17.5 12q-14 10 -28.5 19t-30.5 19q34 54 79.5 108.5t101 97.5t120.5 70t137 27q84 0 158.5 -21.5t142.5 -57t131.5 -81.5t126 -95t125.5 -97t130 -87l-63 -182q-144 15 -280 3.5t-257.5 -46 t-224 -88.5t-178 -124t-121 -152.5t-52.5 -173.5q-1 -80 22.5 -146t65 -118t99.5 -90.5t126 -64t143.5 -38t153.5 -12.5zM1076.18 145.24l140.413 -140.431l-142.336 -142.354l-140.413 140.431zM685.714 144.278l140.413 -141.393l-142.336 -142.354l-140.413 141.393z M885.754 -149.087l126.949 -126.965l-127.91 -127.927l-126.949 126.965z"/>
    <glyph glyph-name="uniFB7B" unicode="چ" horiz-adv-x="1587" arabic-form="final" d="M983.039 72.0186l136.43 -136.555l-138.298 -138.425l-136.43 136.555zM603.653 71.083l136.43 -137.489l-138.298 -138.425l-136.43 137.489zM798.019 -214.185l123.348 -123.46l-124.282 -124.395l-123.347 123.459zM853 -608q141 0 267 39.5t248 124.5l90 -129 q-142 -95 -302 -147t-341 -52q-150 0 -282 40.5t-230.5 118.5t-155.5 191t-57 257v21t1 22q6 102 46 195.5t110 174t168 146t219 111t263 68.5t301 20q-36 19 -78 50t-88 65.5t-95.5 69.5t-101.5 63.5t-106 46t-108 17.5t-101.5 -22t-88.5 -56t-75 -74.5t-60 -76.5 q-12 8 -21 13.5t-16.5 10.5l-15 10t-17.5 12q-14 10 -28.5 19t-30.5 19q34 54 79.5 108.5t101 97.5t120.5 70t137 27q84 0 158.5 -21.5t142.5 -57t131.5 -81.5t126 -95t125.5 -97t130 -87l-51 -159l-154 -10q-1 -8 -1 -15.5v-13.5q0 -15 2 -34t7 -39t14 -39.5t23 -37.5 q26 -31 58 -50.5t73.5 -30.5t93.5 -15t118 -4q32 0 55.5 -23.5t23.5 -56.5q0 -32 -23.5 -54t-55.5 -22q-175 0 -288.5 41.5t-179.5 119.5q-32 45 -53 102.5t-24 121.5q-2 14 1 38q-166 -16 -311 -66.5t-254 -128t-175 -176.5t-75 -211q-1 -80 22.5 -146t65 -118t99.5 -90.5 t126 -64t143.5 -38t153.5 -12.5z"/>
    <glyph glyph-name="uni0623" unicode="أ" horiz-adv-x="525" arabic-form="isolated" d="M151 23q7 108 11.5 204t6 187.5t1 182t-1.5 189.5q-2 82 -5 152t-8 122q-7 93 -14 190.5t-20 193.5q43 7 77.5 9.5t76.5 7.5q9 -66 16.5 -137.5t13.5 -144.5t10 -145.5t7 -140.5q2 -68 3.5 -143t1.5 -159q0 -130 -4 -273.5t-15 -303.5zM384 2019q-15 2 -32 5 q-15 3 -31 4.5t-32 1.5q-18 0 -36 -3t-37 -12h1q-39 -15 -63 -49.5t-24 -73.5q0 -9 2 -21t8 -24q8 -20 23.5 -37.5t35.5 -31t43.5 -21t49.5 -7.5q12 0 24 1.5t27 7.5l-1 -1q24 7 47.5 18.5t43.5 23t35.5 21.5t22.5 16l53 -69q-42 -29 -106 -65t-154 -86l-244 -135 q-12 22 -21 39t-21 38l210 117q-53 23 -92.5 59.5t-58.5 77.5q-14 36 -14 79q0 33 10 64.5t29 58t44.5 48t57.5 34.5q51 20 105 20q39 0 72.5 -6.5t48.5 -11.5z"/>
    <glyph glyph-name="uniFE84" unicode="أ" horiz-adv-x="569" arabic-form="final" d="M562 20q-106 0 -181 24.5t-126 75.5q-31 31 -47.5 67t-24 71t-8.5 67t-1 55q1 30 2.5 105t1.5 180q0 59 -0.5 128.5t-2 139t-4 144.5t-6 139t-8.5 118.5t-12 97.5l156 28q8 -47 13.5 -105t9 -126t6 -147t3.5 -152.5t1.5 -147.5t0.5 -137q0 -77 -0.5 -140.5t-1.5 -126.5 q-1 -48 4 -84.5t32 -62.5q25 -25 71 -39.5t113 -15.5h9q32 0 55.5 -23t23.5 -55q0 -33 -23.5 -55.5t-55.5 -22.5zM376 1990q-15 2 -32 5q-15 3 -31 4.5t-32 1.5q-18 0 -36 -3t-37 -12h1q-39 -15 -63 -49.5t-24 -73.5q0 -9 2 -21t8 -24q8 -20 23.5 -37.5t35.5 -31t43.5 -21 t49.5 -7.5q12 0 24 1.5t27 7.5l-1 -1q24 7 47.5 18.5t43.5 23t35.5 21.5t22.5 16l53 -69q-42 -29 -106 -65t-154 -86l-244 -135q-12 22 -21 39t-21 38l210 117q-53 23 -92.5 59.5t-58.5 77.5q-14 36 -14 79q0 33 10 64.5t29 58t44.5 48t57.5 34.5q51 20 105 20 q39 0 72.5 -6.5t48.5 -11.5z"/>
    <glyph glyph-name="uni0625" unicode="إ" horiz-adv-x="525" arabic-form="isolated" d="M131 23q7 108 11.5 204t6 187.5t1 182t-1.5 189.5q-2 82 -5 152t-8 122q-7 93 -14 190.5t-20 193.5q43 7 77.5 9.5t76.5 7.5q9 -66 16.5 -137.5t13.5 -144.5t10 -145.5t7 -140.5q2 -68 3.5 -143t1.5 -159q0 -130 -4 -273.5t-15 -303.5zM374 -197q-15 2 -32 5 q-15 3 -31 4.5t-32 1.5q-18 0 -36 -3t-37 -12h1q-39 -15 -63 -49.5t-24 -73.5q0 -9 2 -21t8 -24q8 -20 23.5 -37.5t35.5 -31t43.5 -21t49.5 -7.5q12 0 24 1.5t27 7.5l-1 -1q24 7 47.5 18.5t43.5 23t35.5 21.5t22.5 16l53 -69q-42 -29 -106 -65t-154 -86l-244 -135 q-12 22 -21 39t-21 38l210 117q-53 23 -92.5 59.5t-58.5 77.5q-14 36 -14 79q0 33 10 64.5t29 58t44.5 48t57.5 34.5q51 20 105 20q39 0 72.5 -6.5t48.5 -11.5z"/>
    <glyph glyph-name="uniFE88" unicode="إ" horiz-adv-x="569" arabic-form="final" d="M562 20q-106 0 -181 24.5t-126 75.5q-31 31 -47.5 67t-24 71t-8.5 67t-1 55q1 30 2.5 105t1.5 180q0 59 -0.5 128.5t-2 139t-4 144.5t-6 139t-8.5 118.5t-12 97.5l156 28q8 -47 13.5 -105t9 -126t6 -147t3.5 -152.5t1.5 -147.5t0.5 -137q0 -77 -0.5 -140.5t-1.5 -126.5 q-1 -48 4 -84.5t32 -62.5q25 -25 71 -39.5t113 -15.5h9q32 0 55.5 -23t23.5 -55q0 -33 -23.5 -55.5t-55.5 -22.5zM490 -195q-15 2 -32 5q-15 3 -31 4.5t-32 1.5q-18 0 -36 -3t-37 -12h1q-39 -15 -63 -49.5t-24 -73.5q0 -9 2 -21t8 -24q8 -20 23.5 -37.5t35.5 -31t43.5 -21 t49.5 -7.5q12 0 24 1.5t27 7.5l-1 -1q24 7 47.5 18.5t43.5 23t35.5 21.5t22.5 16l53 -69q-42 -29 -106 -65t-154 -86l-244 -135q-12 22 -21 39t-21 38l210 117q-53 23 -92.5 59.5t-58.5 77.5q-14 36 -14 79q0 33 10 64.5t29 58t44.5 48t57.5 34.5q51 20 105 20 q39 0 72.5 -6.5t48.5 -11.5z"/>
    <glyph glyph-name="uni0622" unicode="آ" horiz-adv-x="621" arabic-form="isolated" d="M224 23q7 108 11.5 204t6 187.5t1 182t-1.5 189.5q-2 82 -5 152t-8 122q-7 93 -14 190.5t-20 193.5q43 7 77.5 9.5t76.5 7.5q9 -66 16.5 -137.5t13.5 -144.5t10 -145.5t7 -140.5q2 -68 3.5 -143t1.5 -159q0 -130 -4 -273.5t-15 -303.5zM-103 1561q5 14 15.5 42t24.5 51 h-1q30 48 70.5 77.5t84.5 37.5q10 2 21.5 2.5t19.5 0.5q42 0 77 -10.5t65 -23.5q29 -11 56 -19.5t59 -9.5q24 -1 46.5 9.5t42 25.5t34 31t22.5 26q28 -17 49.5 -32t48.5 -32q-5 -9 -25 -34t-52.5 -50.5t-75.5 -45.5t-95 -18q-40 1 -74 11t-63 20h1l-16 6q-33 13 -62 21 t-61 3h1q-19 -2 -35.5 -16.5t-29 -33.5t-22 -39t-14.5 -35z"/>
    <glyph glyph-name="uniFE82" unicode="آ" horiz-adv-x="569" arabic-form="final" d="M562 20q-106 0 -181 24.5t-126 75.5q-31 31 -47.5 67t-24 71t-8.5 67t-1 55q1 30 2.5 105t1.5 180q0 59 -0.5 128.5t-2 139t-4 144.5t-6 139t-8.5 118.5t-12 97.5l156 28q8 -47 13.5 -105t9 -126t6 -147t3.5 -152.5t1.5 -147.5t0.5 -137q0 -77 -0.5 -140.5t-1.5 -126.5 q-1 -48 4 -84.5t32 -62.5q25 -25 71 -39.5t113 -15.5h9q32 0 55.5 -23t23.5 -55q0 -33 -23.5 -55.5t-55.5 -22.5zM-137 1553q5 14 15.5 42t24.5 51h-1q30 48 70.5 77.5t84.5 37.5q10 2 21.5 2.5t19.5 0.5q42 0 77 -10.5t65 -23.5q29 -11 56 -19.5t59 -9.5q24 -1 46.5 9.5 t42 25.5t34 31t22.5 26q28 -17 49.5 -32t48.5 -32q-5 -9 -25 -34t-52.5 -50.5t-75.5 -45.5t-95 -18q-40 1 -74 11t-63 20h1l-16 6q-33 13 -62 21t-61 3h1q-19 -2 -35.5 -16.5t-29 -33.5t-22 -39t-14.5 -35z"/>
    <glyph glyph-name="uni0671" unicode="ٱ" horiz-adv-x="573" arabic-form="isolated" d="M147 23q7 108 11.5 204t6 187.5t1 182t-1.5 189.5q-2 82 -5 152t-8 122q-7 93 -14 190.5t-20 193.5q43 7 77.5 9.5t76.5 7.5q9 -66 16.5 -137.5t13.5 -144.5t10 -145.5t7 -140.5q2 -68 3.5 -143t1.5 -159q0 -130 -4 -273.5t-15 -303.5zM199 1635q27 -3 61 -3.5t68.5 3.5 t66.5 13.5t53 27.5q26 23 29 57q0 14 -6.5 25t-11.5 16q-20 21 -42 23.5t-40 -0.5q-27 -5 -53.5 -18.5t-49.5 -36.5q-29 -29 -48 -59.5t-27 -47.5zM-75 1666q26 13 52 22q22 8 45.5 13t40.5 1t30.5 -10.5t23.5 -14.5q11 -9 19 -19q10 19 33 57t61 75q29 28 64 46.5t71 23.5 q42 9 78.5 -1.5t62.5 -38.5q19 -20 28.5 -43t6.5 -49q-2 -62 -53 -104q-22 -18 -49.5 -29t-57 -17.5t-60 -9t-57.5 -2.5q-29 0 -52 2t-33 3q-25 3 -49 14q-14 6 -26.5 15.5t-26.5 28.5q-16 12 -39 9t-44 -12q-25 -11 -51 -28z"/>
    <glyph glyph-name="uniFB51" unicode="ٱ" horiz-adv-x="569" arabic-form="final" d="M562 20q-106 0 -181 24.5t-126 75.5q-31 31 -47.5 67t-24 71t-8.5 67t-1 55q1 30 2.5 105t1.5 180q0 59 -0.5 128.5t-2 139t-4 144.5t-6 139t-8.5 118.5t-12 97.5l156 28q8 -47 13.5 -105t9 -126t6 -147t3.5 -152.5t1.5 -147.5t0.5 -137q0 -77 -0.5 -140.5t-1.5 -126.5 q-1 -48 4 -84.5t32 -62.5q25 -25 71 -39.5t113 -15.5h9q32 0 55.5 -23t23.5 -55q0 -33 -23.5 -55.5t-55.5 -22.5zM204 1639q27 -3 61 -3.5t68.5 3.5t66.5 13.5t53 27.5q26 23 29 57q0 14 -6.5 25t-11.5 16q-20 21 -42 23.5t-40 -0.5q-27 -5 -53.5 -18.5t-49.5 -36.5 q-29 -29 -48 -59.5t-27 -47.5zM-70 1670q26 13 52 22q22 8 45.5 13t40.5 1t30.5 -10.5t23.5 -14.5q11 -9 19 -19q10 19 33 57t61 75q29 28 64 46.5t71 23.5q42 9 78.5 -1.5t62.5 -38.5q19 -20 28.5 -43t6.5 -49q-2 -62 -53 -104q-22 -18 -49.5 -29t-57 -17.5t-60 -9 t-57.5 -2.5q-29 0 -52 2t-33 3q-25 3 -49 14q-14 6 -26.5 15.5t-26.5 28.5q-16 12 -39 9t-44 -12q-25 -11 -51 -28z"/>
    <glyph glyph-name="uni0628" unicode="ب" horiz-adv-x="1992" arabic-form="isolated" d="M998 20q-174 2 -318 23t-250 59q-97 38 -166 93.5t-103 125.5q-40 76 -40 169q0 44 10 92.5t28 96.5q20 51 41 89.5t34 58.5l126 -94q-3 -4 -5 -7.5t-7 -14t-15 -32t-29 -60.5q-13 -35 -20.5 -67t-7.5 -61q0 -26 6 -51.5t16 -46.5q28 -50 89 -89.5t150.5 -67t205.5 -43 t255 -15.5q81 0 178 7t198 25t201.5 49t189.5 80q-6 64 -29.5 133t-53 130t-57.5 108.5t-42 70.5l133 86q13 -21 37.5 -62.5t50.5 -95.5t50.5 -117t39.5 -126q7 -30 11 -56.5t4 -51.5q0 -45 -24.5 -82.5t-80.5 -74.5q-69 -39 -168 -73t-209.5 -58t-222.5 -37.5t-206 -12.5z M1158 -361l-147 -147l-148 148l147 147z"/>
    <glyph glyph-name="uniFE91" unicode="ب" horiz-adv-x="664" arabic-form="initial" d="M-85 98q0 33 23 55.5t55 22.5h103q11 0 22.5 -0.5t22.5 -0.5q48 0 92.5 5t82 19t66.5 40t48 67v-1q16 33 16 88q0 94 -44 235q-8 25 -19.5 54t-22.5 56.5t-21.5 50.5t-16.5 37l142 71q6 -14 16 -36t22 -51t24.5 -63t24.5 -71q26 -81 39 -151t13 -130q0 -88 -28 -153 q-35 -73 -95.5 -125.5t-144.5 -75.5q-52 -15 -101.5 -18t-94.5 -3h-146q-32 0 -55 22.5t-23 55.5zM441 -376l-147 -147l-148 148l147 147z"/>
    <glyph glyph-name="uniFE92" unicode="ب" horiz-adv-x="718" arabic-form="medial" d="M-74 98q0 32 22.5 55t55.5 23h17q178 0 262 63.5t84 192.5q0 27 -2.5 52.5t-7.5 53t-12 58.5t-17 68q42 11 75.5 21.5t73.5 21.5q23 -86 35.5 -156.5t14.5 -134.5q2 -57 8.5 -101.5t25 -75t52.5 -47t91 -16.5q32 0 55.5 -23t23.5 -55q0 -33 -23 -55.5t-55 -22.5 q-48 0 -87.5 10t-73 27.5t-61 42t-50.5 54.5q-69 -67 -169.5 -100.5t-242.5 -33.5h-17q-33 0 -55.5 22.5t-22.5 55.5zM536 -361l-147 -147l-148 148l147 147z"/>
    <glyph glyph-name="uniFE90" unicode="ب" horiz-adv-x="2245" arabic-form="final" d="M1858 177q-38 45 -69 133q-281 -293 -841 -293q-299 2 -494 70t-282 215q-35 58 -49.5 120t-14.5 123q0 38 5 74.5t13 68.5q17 70 36 119t30 72q38 -21 70 -39.5t69 -38.5q-6 -15 -18 -40t-23 -57.5t-19.5 -70t-8.5 -76.5q0 -41 10 -84t32 -81q32 -52 90.5 -92 t140.5 -67.5t186 -42t227 -14.5q223 0 382.5 40t264.5 126l-1 -1q45 36 78.5 78t57.5 87t41 90.5t30 89.5q42 -11 77 -21t75 -21q-5 -20 -9 -36.5t-10 -43.5q-12 -59 -11 -105q2 -45 14 -95t46 -91l-1 1q78 -98 254 -98q33 0 56 -22.5t23 -55.5t-23 -55.5t-56 -22.5h-8 q-251 3 -369 156zM1138 -362l-147 -147l-148 148l147 147z"/>
    <glyph glyph-name="uni067E" unicode="پ" horiz-adv-x="1964" arabic-form="isolated" d="M991 20q-174 2 -318 23t-250 59q-97 38 -166 93.5t-103 125.5q-40 76 -40 169q0 44 10 92.5t28 96.5q20 51 41 89.5t34 58.5l126 -94q-3 -4 -5 -7.5t-7 -14t-15 -32t-29 -60.5q-13 -35 -20.5 -67t-7.5 -61q0 -26 6 -51.5t16 -46.5q28 -50 89 -89.5t150.5 -67t205.5 -43 t255 -15.5q81 0 178 7t198 25t201.5 49t189.5 80q-6 64 -29.5 133t-53 130t-57.5 108.5t-42 70.5l133 86q13 -21 37.5 -62.5t50.5 -95.5t50.5 -117t39.5 -126q7 -30 11 -56.5t4 -51.5q0 -45 -24.5 -82.5t-80.5 -74.5q-69 -39 -168 -73t-209.5 -58t-222.5 -37.5t-206 -12.5z M1211 -162l146 -146l-148 -148l-146 146zM805 -163l146 -147l-148 -148l-146 147zM1013 -468l132 -132l-133 -133l-132 132z"/>
    <glyph glyph-name="uniFB57" unicode="پ" horiz-adv-x="2247" arabic-form="final" d="M1858 177q-38 45 -69 133q-281 -293 -841 -293q-299 2 -494 70t-282 215q-35 58 -49.5 120t-14.5 123q0 38 5 74.5t13 68.5q17 70 36 119t30 72q38 -21 70 -39.5t69 -38.5q-6 -15 -18 -40t-23 -57.5t-19.5 -70t-8.5 -76.5q0 -41 10 -84t32 -81q32 -52 90.5 -92 t140.5 -67.5t186 -42t227 -14.5q223 0 382.5 40t264.5 126l-1 -1q45 36 78.5 78t57.5 87t41 90.5t30 89.5q42 -11 77 -21t75 -21q-5 -20 -9 -36.5t-10 -43.5q-12 -59 -11 -105q2 -45 14 -95t46 -91l-1 1q78 -98 254 -98q33 0 56 -22.5t23 -55.5t-23 -55.5t-56 -22.5h-8 q-251 3 -369 156zM1221 -151l146 -146l-148 -148l-146 146zM815 -152l146 -147l-148 -148l-146 147zM1023 -457l132 -132l-133 -133l-132 132z"/>
    <glyph glyph-name="uniFB58" unicode="پ" horiz-adv-x="859" arabic-form="initial" d="M-78 98q0 33 23 55.5t55 22.5h111q56 0 123.5 2.5t130.5 15t113.5 39t71.5 73.5v-1q16 33 16 88q0 47 -14 106t-36 129q-8 25 -19.5 54t-22.5 56.5t-21.5 50.5t-16.5 37l142 71q6 -14 16 -36t22 -51t24.5 -63t24.5 -71q26 -81 39 -151t13 -130q0 -88 -28 -153 q-35 -73 -95.5 -125.5t-144.5 -75.5q-26 -8 -67 -12t-84.5 -6t-82.5 -2.5t-61 -0.5h-154q-32 0 -55 22.5t-23 55.5zM575 -202l146 -146l-148 -148l-146 146zM169 -203l146 -147l-148 -148l-146 147zM377 -508l132 -132l-133 -133l-132 132z"/>
    <glyph glyph-name="uniFB59" unicode="پ" horiz-adv-x="859" arabic-form="medial" d="M-81 98q0 33 22.5 55.5t55.5 22.5h76q88 0 169 9t142.5 35t96.5 74.5t32 127.5q-1 27 -3 51.5t-6.5 51t-11 56.5t-16.5 68q42 11 75.5 21.5t73.5 21.5q12 -43 19 -79t11.5 -69.5t8 -67t8.5 -72.5q5 -42 12.5 -82.5t26 -73t52.5 -52.5t92 -20q33 0 56.5 -22.5t23.5 -55.5 t-23 -55.5t-55 -22.5q-48 0 -88 10.5t-73.5 29t-61.5 43.5t-50 55q-39 -38 -97 -64t-126.5 -42.5t-142.5 -24t-145 -7.5h-76q-33 0 -55.5 22.5t-22.5 55.5zM566 -156l146 -146l-148 -148l-146 146zM160 -157l146 -147l-148 -148l-146 147zM368 -462l132 -132l-133 -133 l-132 132z"/>
    <glyph glyph-name="uni062A" unicode="ت" horiz-adv-x="2000" arabic-form="isolated" d="M978 20q-174 2 -318 23t-250 59q-97 38 -166 93.5t-103 125.5q-40 76 -40 169q0 44 10 92.5t28 96.5q20 51 41 89.5t34 58.5l126 -94q-3 -4 -5 -7.5t-7 -14t-15 -32t-29 -60.5q-13 -35 -20.5 -67t-7.5 -61q0 -26 6 -51.5t16 -46.5q28 -50 89 -89.5t150.5 -67t205.5 -43 t255 -15.5q81 0 178 7t198 25t201.5 49t189.5 80q-6 64 -29.5 133t-53 130t-57.5 108.5t-42 70.5l133 86q13 -21 37.5 -62.5t50.5 -95.5t50.5 -117t39.5 -126q7 -30 11 -56.5t4 -51.5q0 -45 -24.5 -82.5t-80.5 -74.5q-69 -39 -168 -73t-209.5 -58t-222.5 -37.5t-206 -12.5z M972 989l-146 -146l-148 147l146 147zM1327 987l-145 -146l-148 148l146 146z"/>
    <glyph glyph-name="uniFE97" unicode="ت" horiz-adv-x="788" arabic-form="initial" d="M389 1246l-146 -146l-148 147l146 147zM744 1244l-145 -146l-148 148l146 146zM-115 98q0 33 23 55.5t55 22.5h111q56 0 123.5 2.5t130.5 15t113.5 39t71.5 73.5v-1q16 33 16 88q0 47 -14 106t-36 129q-8 25 -19.5 54t-22.5 56.5t-21.5 50.5t-16.5 37l142 71 q6 -14 16 -36t22 -51t24.5 -63t24.5 -71q26 -81 39 -151t13 -130q0 -88 -28 -153q-35 -73 -95.5 -125.5t-144.5 -75.5q-26 -8 -67 -12t-84.5 -6t-82.5 -2.5t-61 -0.5h-154q-32 0 -55 22.5t-23 55.5z"/>
    <glyph glyph-name="uniFE98" unicode="ت" horiz-adv-x="870" arabic-form="medial" d="M-81 98q0 33 22.5 55.5t55.5 22.5h76q88 0 169 9t142.5 35t96.5 74.5t32 127.5q-1 27 -3 51.5t-6.5 51t-11 56.5t-16.5 68q42 11 75.5 21.5t73.5 21.5q12 -43 19 -79t11.5 -69.5t8 -67t8.5 -72.5q5 -42 12.5 -82.5t26 -73t52.5 -52.5t92 -20q33 0 56.5 -22.5t23.5 -55.5 t-23 -55.5t-55 -22.5q-48 0 -88 10.5t-73.5 29t-61.5 43.5t-50 55q-39 -38 -97 -64t-126.5 -42.5t-142.5 -24t-145 -7.5h-76q-33 0 -55.5 22.5t-22.5 55.5zM410 1022l-146 -146l-148 147l146 147zM765 1020l-145 -146l-148 148l146 146z"/>
    <glyph glyph-name="uniFE96" unicode="ت" horiz-adv-x="2253" arabic-form="final" d="M1858 177q-38 45 -69 133q-281 -293 -841 -293q-299 2 -494 70t-282 215q-35 58 -49.5 120t-14.5 123q0 38 5 74.5t13 68.5q17 70 36 119t30 72q38 -21 70 -39.5t69 -38.5q-6 -15 -18 -40t-23 -57.5t-19.5 -70t-8.5 -76.5q0 -41 10 -84t32 -81q32 -52 90.5 -92 t140.5 -67.5t186 -42t227 -14.5q223 0 382.5 40t264.5 126l-1 -1q45 36 78.5 78t57.5 87t41 90.5t30 89.5q42 -11 77 -21t75 -21q-5 -20 -9 -36.5t-10 -43.5q-12 -59 -11 -105q2 -45 14 -95t46 -91l-1 1q78 -98 254 -98q33 0 56 -22.5t23 -55.5t-23 -55.5t-56 -22.5h-8 q-251 3 -369 156zM993 984l-146 -146l-148 147l146 147zM1348 982l-145 -146l-148 148l146 146z"/>
    <glyph glyph-name="uni062B" unicode="ث" horiz-adv-x="1964" arabic-form="isolated" d="M985 20q-174 2 -318 23t-250 59q-97 38 -166 93.5t-103 125.5q-40 76 -40 169q0 44 10 92.5t28 96.5q20 51 41 89.5t34 58.5l126 -94q-3 -4 -5 -7.5t-7 -14t-15 -32t-29 -60.5q-13 -35 -20.5 -67t-7.5 -61q0 -26 6 -51.5t16 -46.5q28 -50 89 -89.5t150.5 -67t205.5 -43 t255 -15.5q81 0 178 7t198 25t201.5 49t189.5 80q-6 64 -29.5 133t-53 130t-57.5 108.5t-42 70.5l133 86q13 -21 37.5 -62.5t50.5 -95.5t50.5 -117t39.5 -126q7 -30 11 -56.5t4 -51.5q0 -45 -24.5 -82.5t-80.5 -74.5q-69 -39 -168 -73t-209.5 -58t-222.5 -37.5t-206 -12.5z M1058 968l146 146l148 -148l-146 -146zM652 969l146 147l148 -148l-146 -147zM875 1259l132 132l133 -133l-132 -132z"/>
    <glyph glyph-name="uniFE9B" unicode="ث" horiz-adv-x="799" arabic-form="initial" d="M510 1242l146 146l148 -148l-146 -146zM104 1243l146 147l148 -148l-146 -147zM327 1533l132 132l133 -133l-132 -132zM-78 98q0 33 23 55.5t55 22.5h111q56 0 123.5 2.5t130.5 15t113.5 39t71.5 73.5v-1q16 33 16 88q0 47 -14 106t-36 129q-8 25 -19.5 54t-22.5 56.5 t-21.5 50.5t-16.5 37l142 71q6 -14 16 -36t22 -51t24.5 -63t24.5 -71q26 -81 39 -151t13 -130q0 -88 -28 -153q-35 -73 -95.5 -125.5t-144.5 -75.5q-26 -8 -67 -12t-84.5 -6t-82.5 -2.5t-61 -0.5h-154q-32 0 -55 22.5t-23 55.5z"/>
    <glyph glyph-name="uniFE9C" unicode="ث" horiz-adv-x="864" arabic-form="medial" d="M-81 98q0 33 22.5 55.5t55.5 22.5h76q88 0 169 9t142.5 35t96.5 74.5t32 127.5q-1 27 -3 51.5t-6.5 51t-11 56.5t-16.5 68q42 11 75.5 21.5t73.5 21.5q12 -43 19 -79t11.5 -69.5t8 -67t8.5 -72.5q5 -42 12.5 -82.5t26 -73t52.5 -52.5t92 -20q33 0 56.5 -22.5t23.5 -55.5 t-23 -55.5t-55 -22.5q-48 0 -88 10.5t-73.5 29t-61.5 43.5t-50 55q-39 -38 -97 -64t-126.5 -42.5t-142.5 -24t-145 -7.5h-76q-33 0 -55.5 22.5t-22.5 55.5zM466 1007l146 146l148 -148l-146 -146zM60 1008l146 147l148 -148l-146 -147zM283 1298l132 132l133 -133l-132 -132 z"/>
    <glyph glyph-name="uniFE9A" unicode="ث" horiz-adv-x="2233" arabic-form="final" d="M1858 177q-38 45 -69 133q-281 -293 -841 -293q-299 2 -494 70t-282 215q-35 58 -49.5 120t-14.5 123q0 38 5 74.5t13 68.5q17 70 36 119t30 72q38 -21 70 -39.5t69 -38.5q-6 -15 -18 -40t-23 -57.5t-19.5 -70t-8.5 -76.5q0 -41 10 -84t32 -81q32 -52 90.5 -92 t140.5 -67.5t186 -42t227 -14.5q223 0 382.5 40t264.5 126l-1 -1q45 36 78.5 78t57.5 87t41 90.5t30 89.5q42 -11 77 -21t75 -21q-5 -20 -9 -36.5t-10 -43.5q-12 -59 -11 -105q2 -45 14 -95t46 -91l-1 1q78 -98 254 -98q33 0 56 -22.5t23 -55.5t-23 -55.5t-56 -22.5h-8 q-251 3 -369 156zM1106 968l146 146l148 -148l-146 -146zM700 969l146 147l148 -148l-146 -147zM923 1259l132 132l133 -133l-132 -132z"/>
    <glyph glyph-name="uni0679" unicode="ٹ" horiz-adv-x="1970" arabic-form="isolated" d="M992 20q-174 2 -318 23t-250 59q-97 38 -166 93.5t-103 125.5q-40 76 -40 169q0 44 10 92.5t28 96.5q20 51 41 89.5t34 58.5l126 -94q-3 -4 -5 -7.5t-7 -14t-15 -32t-29 -60.5q-13 -35 -20.5 -67t-7.5 -61q0 -26 6 -51.5t16 -46.5q28 -50 89 -89.5t150.5 -67t205.5 -43 t255 -15.5q81 0 178 7t198 25t201.5 49t189.5 80q-6 64 -29.5 133t-53 130t-57.5 108.5t-42 70.5l133 86q13 -21 37.5 -62.5t50.5 -95.5t50.5 -117t39.5 -126q7 -30 11 -56.5t4 -51.5q0 -45 -24.5 -82.5t-80.5 -74.5q-69 -39 -168 -73t-209.5 -58t-222.5 -37.5t-206 -12.5z M1172 967q-52 -27 -113 -36q-81 -11 -177 0q91 124 168 180q39 28 68 41q42 18 77 12q42 -7 61 -42q18 -36 1 -75q-2 -4 -2 -3l2 3q1 3 1 4q1 1 -1 -4q-22 -47 -85 -80zM1284 1206q-49 34 -113 34q-57 0 -123 -39q-47 -28 -104 -81q0 78 -8 181l-5 52l-6 53q-8 68 -11 106 l-80 -10q14 -76 24 -173l5 -54l4 -54q3 -60 0 -108l-4 -42l-1 -13l-2 -14q-2 -17 -8 -25l-32 -43l-6 -10l-7 -10q-8 -11 -18 -9q-51 14 -100 33l-15 -36l-15 -35q223 -85 417 -52q110 19 193 88q35 29 55 73q21 47 17 89v9v-5q1 -4 1 -6t-1 2q-3 61 -57 99z"/>
    <glyph glyph-name="uniFB68" unicode="ٹ" horiz-adv-x="774" arabic-form="initial" d="M-83 98q0 33 23 55.5t55 22.5h103q11 0 22.5 -0.5t22.5 -0.5q48 0 92.5 5t82 19t66.5 40t48 67v-1q16 33 16 88q0 94 -44 235q-8 25 -19.5 54t-22.5 56.5t-21.5 50.5t-16.5 37l142 71q6 -14 16 -36t22 -51t24.5 -63t24.5 -71q26 -81 39 -151t13 -130q0 -88 -28 -153 q-35 -73 -95.5 -125.5t-144.5 -75.5q-52 -15 -101.5 -18t-94.5 -3h-146q-32 0 -55 22.5t-23 55.5zM523 1226q-52 -27 -113 -36q-81 -11 -177 0q91 124 168 180q39 28 68 41q42 18 77 12q42 -7 61 -42q18 -36 1 -75q-2 -4 -2 -3l2 3q1 3 1 4q1 1 -1 -4q-22 -47 -85 -80z M635 1465q-49 34 -113 34q-57 0 -123 -39q-47 -28 -104 -81q0 78 -8 181l-5 52l-6 53q-8 68 -11 106l-80 -10q14 -76 24 -173l5 -54l4 -54q3 -60 0 -108l-4 -42l-1 -13l-2 -14q-2 -17 -8 -25l-32 -43l-6 -10l-7 -10q-8 -11 -18 -9q-51 14 -100 33l-15 -36l-15 -35 q223 -85 417 -52q110 19 193 88q35 29 55 73q21 47 17 89v9v-5q1 -4 1 -6t-1 2q-3 61 -57 99z"/>
    <glyph glyph-name="uniFB69" unicode="ٹ" horiz-adv-x="859" arabic-form="medial" d="M-81 98q0 33 22.5 55.5t55.5 22.5h76q88 0 169 9t142.5 35t96.5 74.5t32 127.5q-1 27 -3 51.5t-6.5 51t-11 56.5t-16.5 68q42 11 75.5 21.5t73.5 21.5q12 -43 19 -79t11.5 -69.5t8 -67t8.5 -72.5q5 -42 12.5 -82.5t26 -73t52.5 -52.5t92 -20q33 0 56.5 -22.5t23.5 -55.5 t-23 -55.5t-55 -22.5q-48 0 -88 10.5t-73.5 29t-61.5 43.5t-50 55q-39 -38 -97 -64t-126.5 -42.5t-142.5 -24t-145 -7.5h-76q-33 0 -55.5 22.5t-22.5 55.5zM584 1116q-52 -27 -113 -36q-81 -11 -177 0q91 124 168 180q39 28 68 41q42 18 77 12q42 -7 61 -42q18 -36 1 -75 q-2 -4 -2 -3l2 3q1 3 1 4q1 1 -1 -4q-22 -47 -85 -80zM696 1355q-49 34 -113 34q-57 0 -123 -39q-47 -28 -104 -81q0 78 -8 181l-5 52l-6 53q-8 68 -11 106l-80 -10q14 -76 24 -173l5 -54l4 -54q3 -60 0 -108l-4 -42l-1 -13l-2 -14q-2 -17 -8 -25l-32 -43l-6 -10l-7 -10 q-8 -11 -18 -9q-51 14 -100 33l-15 -36l-15 -35q223 -85 417 -52q110 19 193 88q35 29 55 73q21 47 17 89v9v-5q1 -4 1 -6t-1 2q-3 61 -57 99z"/>
    <glyph glyph-name="uniFB67" unicode="ٹ" horiz-adv-x="2236" arabic-form="final" d="M1858 177q-38 45 -69 133q-281 -293 -841 -293q-299 2 -494 70t-282 215q-35 58 -49.5 120t-14.5 123q0 38 5 74.5t13 68.5q17 70 36 119t30 72q38 -21 70 -39.5t69 -38.5q-6 -15 -18 -40t-23 -57.5t-19.5 -70t-8.5 -76.5q0 -41 10 -84t32 -81q32 -52 90.5 -92 t140.5 -67.5t186 -42t227 -14.5q223 0 382.5 40t264.5 126l-1 -1q45 36 78.5 78t57.5 87t41 90.5t30 89.5q42 -11 77 -21t75 -21q-5 -20 -9 -36.5t-10 -43.5q-12 -59 -11 -105q2 -45 14 -95t46 -91l-1 1q78 -98 254 -98q33 0 56 -22.5t23 -55.5t-23 -55.5t-56 -22.5h-8 q-251 3 -369 156zM1246 967q-52 -27 -113 -36q-81 -11 -177 0q91 124 168 180q39 28 68 41q42 18 77 12q42 -7 61 -42q18 -36 1 -75q-2 -4 -2 -3l2 3q1 3 1 4q1 1 -1 -4q-22 -47 -85 -80zM1358 1206q-49 34 -113 34q-57 0 -123 -39q-47 -28 -104 -81q0 78 -8 181l-5 52 l-6 53q-8 68 -11 106l-80 -10q14 -76 24 -173l5 -54l4 -54q3 -60 0 -108l-4 -42l-1 -13l-2 -14q-2 -17 -8 -25l-32 -43l-6 -10l-7 -10q-8 -11 -18 -9q-51 14 -100 33l-15 -36l-15 -35q223 -85 417 -52q110 19 193 88q35 29 55 73q21 47 17 89v9v-5q1 -4 1 -6t-1 2 q-3 61 -57 99z"/>
    <glyph glyph-name="uni0629" unicode="ة" horiz-adv-x="1020" arabic-form="isolated" d="M522 16q-5 0 -23.5 1t-47 5.5t-63 13.5t-70.5 26q-89 42 -135.5 113t-46.5 168q0 85 40 177t118 187q31 37 67 72.5t65 62.5q-29 25 -44 39t-21.5 21t-7.5 8t-2 0l107 114q13 -12 36.5 -33t52.5 -49t61.5 -60.5t63.5 -66.5q117 -134 177.5 -254t60.5 -218q0 -97 -43 -168 t-125 -112q-31 -15 -62.5 -24t-60.5 -14.5t-54 -7t-43 -1.5zM510 719q-30 -26 -70 -68.5t-76 -93t-61 -106t-25 -107.5q0 -34 23.5 -72t84.5 -67h-1q21 -10 42 -16t39.5 -9t33 -4t22.5 -1q10 0 27 0.5t37.5 3.5t43 8.5t42.5 15.5q43 23 69 53.5t26 81.5q0 34 -16.5 76.5 t-46 91t-70.5 101.5t-90 107l-18 20zM428 1360l-146 -146l-148 147l146 147zM783 1358l-145 -146l-148 148l146 146z"/>
    <glyph glyph-name="uniFE94" unicode="ة" horiz-adv-x="1126" arabic-form="final" d="M581 160q-249 0 -344 118q-27 33 -37.5 72t-10.5 75q0 32 5 58t13 43q26 54 63 99.5t80 82.5t88.5 66.5t89 52t82 38t67.5 26.5l-15 145l157 34q1 -8 3.5 -35t6.5 -63t8 -76.5t8 -76t7 -62t4 -33.5v1q15 -131 28.5 -214t23.5 -132t17 -70.5t10 -28.5v1q13 -31 30.5 -51 t40.5 -32t52.5 -17t68.5 -5q32 0 55.5 -22.5t23.5 -55.5q0 -32 -23.5 -55t-55.5 -23q-38 0 -88 6t-99 29h1q-75 35 -131 126q-135 -21 -229 -21zM671 720q-25 -11 -59.5 -26t-71 -34.5t-72.5 -43t-64.5 -51t-46 -59.5t-17.5 -67q0 -37 20.5 -61t53.5 -38.5t75 -20t86 -5.5 q46 0 95 5.5t86 12.5q-14 69 -28.5 170t-30.5 228zM594 1426l-146 -146l-148 147l146 147zM949 1424l-145 -146l-148 148l146 146z"/>
    <glyph glyph-name="uniFB7C" unicode="چ" horiz-adv-x="1559" arabic-form="initial" d="M-81 98q0 33 23.5 55.5t56.5 22.5h198q135 0 273 27.5t273.5 72.5t267 103t254.5 120l-298 124q-47 22 -92.5 43t-88 37.5t-81 26t-71.5 9.5q-38 0 -72 -13.5t-63.5 -35.5t-54.5 -49t-45 -54t-34 -50.5t-22 -37.5l-134 80q11 23 31.5 56.5t58.5 79.5q74 90 159 135.5 t176 45.5q47 0 95.5 -11t98.5 -29t101.5 -41.5t104.5 -48.5q58 -27 105.5 -51t93.5 -46.5t95.5 -45t111.5 -45.5q8 -44 16 -79.5t16 -77.5q-34 -14 -56 -23.5t-41.5 -19t-41.5 -21t-58 -29.5q-108 -53 -235 -108t-265.5 -99.5t-285 -72.5t-292.5 -28h-198q-33 0 -56.5 23 t-23.5 55zM954 -145l146 -146l-148 -148l-146 146zM548 -146l146 -147l-148 -148l-146 147zM756 -451l132 -132l-133 -133l-132 132z"/>
    <glyph glyph-name="uniFB7D" unicode="چ" horiz-adv-x="1663" arabic-form="medial" d="M-79 97q0 32 23 55.5t56 23.5h183q136 0 261.5 25t243 66t229.5 93t220 106l60 30q-44 15 -95.5 39t-106.5 50.5t-112 54t-113 49t-109 35.5t-100 14q-56 0 -104 -28.5t-85.5 -67.5t-63.5 -79.5t-38 -63.5l-130 88q31 57 72.5 113t94 99.5t116 70.5t138.5 27 q68 0 137.5 -19t139 -48t139 -65t138.5 -70.5t137 -63t135 -42.5q4 -23 8.5 -42t8 -37t7.5 -36.5t9 -40.5l-27 -12t-20 -9t-29 -14t-55 -27q13 -45 40 -77t61 -53.5t72 -34.5t74 -19.5t67 -8.5t50 -2h6h8q33 0 56 -23.5t23 -55.5q0 -33 -23 -55t-56 -22h-14q-95 0 -176.5 19 t-146.5 55t-112 88t-73 118q-105 -53 -217.5 -103t-232.5 -90t-248 -64t-264 -24l-183 1q-33 0 -56 22t-23 55zM953 -151l146 -146l-148 -148l-146 146zM547 -152l146 -147l-148 -148l-146 147zM755 -457l132 -132l-133 -133l-132 132z"/>
    <glyph glyph-name="uni062C" unicode="ج" horiz-adv-x="1570" arabic-form="isolated" d="M873 -608q141 0 267 39.5t248 124.5l90 -129q-142 -95 -302 -147t-341 -52q-150 0 -282 40.5t-230.5 118.5t-155.5 191t-57 257v21t1 22q6 102 46 195.5t110 174t168 146t219 111t263 68.5t301 20q-36 19 -78 50t-88 65.5t-95.5 69.5t-101.5 63.5t-106 46t-108 17.5 t-101.5 -22t-88.5 -56t-75 -74.5t-60 -76.5q-12 8 -21 13.5t-16.5 10.5l-15 10t-17.5 12q-14 10 -28.5 19t-30.5 19q34 54 79.5 108.5t101 97.5t120.5 70t137 27q84 0 158.5 -21.5t142.5 -57t131.5 -81.5t126 -95t125.5 -97t130 -87l-63 -182q-144 15 -280 3.5t-257.5 -46 t-224 -88.5t-178 -124t-121 -152.5t-52.5 -173.5q-1 -80 22.5 -146t65 -118t99.5 -90.5t126 -64t143.5 -38t153.5 -12.5zM1034 -93l-147 -147l-148 148l147 147z"/>
    <glyph glyph-name="uniFE9F" unicode="ج" horiz-adv-x="1548" arabic-form="initial" d="M-81 98q0 33 23.5 55.5t56.5 22.5h198q135 0 273 27.5t273.5 72.5t267 103t254.5 120l-298 124q-47 22 -92.5 43t-88 37.5t-81 26t-71.5 9.5q-38 0 -72 -13.5t-63.5 -35.5t-54.5 -49t-45 -54t-34 -50.5t-22 -37.5l-134 80q11 23 31.5 56.5t58.5 79.5q74 90 159 135.5 t176 45.5q47 0 95.5 -11t98.5 -29t101.5 -41.5t104.5 -48.5q58 -27 105.5 -51t93.5 -46.5t95.5 -45t111.5 -45.5q8 -44 16 -79.5t16 -77.5q-34 -14 -56 -23.5t-41.5 -19t-41.5 -21t-58 -29.5q-108 -53 -235 -108t-265.5 -99.5t-285 -72.5t-292.5 -28h-198q-33 0 -56.5 23 t-23.5 55zM912 -365l-147 -147l-148 148l147 147z"/>
    <glyph glyph-name="uniFEA0" unicode="ج" horiz-adv-x="1663" arabic-form="medial" d="M-79 97q0 32 23 55.5t56 23.5h183q136 0 261.5 25t243 66t229.5 93t220 106l60 30q-44 15 -95.5 39t-106.5 50.5t-112 54t-113 49t-109 35.5t-100 14q-56 0 -104 -28.5t-85.5 -67.5t-63.5 -79.5t-38 -63.5l-130 88q31 57 72.5 113t94 99.5t116 70.5t138.5 27 q68 0 137.5 -19t139 -48t139 -65t138.5 -70.5t137 -63t135 -42.5q4 -23 8.5 -42t8 -37t7.5 -36.5t9 -40.5l-27 -12t-20 -9t-29 -14t-55 -27q13 -45 40 -77t61 -53.5t72 -34.5t74 -19.5t67 -8.5t50 -2h6h8q33 0 56 -23.5t23 -55.5q0 -33 -23 -55t-56 -22h-14q-95 0 -176.5 19 t-146.5 55t-112 88t-73 118q-105 -53 -217.5 -103t-232.5 -90t-248 -64t-264 -24l-183 1q-33 0 -56 22t-23 55zM936 -363l-147 -147l-148 148l147 147z"/>
    <glyph glyph-name="uniFE9E" unicode="ج" horiz-adv-x="1609" arabic-form="final" d="M853 -608q141 0 267 39.5t248 124.5l90 -129q-142 -95 -302 -147t-341 -52q-150 0 -282 40.5t-230.5 118.5t-155.5 191t-57 257v21t1 22q6 102 46 195.5t110 174t168 146t219 111t263 68.5t301 20q-36 19 -78 50t-88 65.5t-95.5 69.5t-101.5 63.5t-106 46t-108 17.5 t-101.5 -22t-88.5 -56t-75 -74.5t-60 -76.5q-12 8 -21 13.5t-16.5 10.5l-15 10t-17.5 12q-14 10 -28.5 19t-30.5 19q34 54 79.5 108.5t101 97.5t120.5 70t137 27q84 0 158.5 -21.5t142.5 -57t131.5 -81.5t126 -95t125.5 -97t130 -87l-51 -159l-154 -10q-1 -8 -1 -15.5v-13.5 q0 -15 2 -34t7 -39t14 -39.5t23 -37.5q26 -31 58 -50.5t73.5 -30.5t93.5 -15t118 -4q32 0 55.5 -23.5t23.5 -56.5q0 -32 -23.5 -54t-55.5 -22q-175 0 -288.5 41.5t-179.5 119.5q-32 45 -53 102.5t-24 121.5q-2 14 1 38q-166 -16 -311 -66.5t-254 -128t-175 -176.5t-75 -211 q-1 -80 22.5 -146t65 -118t99.5 -90.5t126 -64t143.5 -38t153.5 -12.5zM970 -122l-147 -147l-148 148l147 147z"/>
    <glyph glyph-name="uni062E" unicode="خ" horiz-adv-x="1570" arabic-form="isolated" d="M867 -608q141 0 267 39.5t248 124.5l90 -129q-142 -95 -302 -147t-341 -52q-150 0 -282 40.5t-230.5 118.5t-155.5 191t-57 257v21t1 22q6 102 46 195.5t110 174t168 146t219 111t263 68.5t301 20q-36 19 -78 50t-88 65.5t-95.5 69.5t-101.5 63.5t-106 46t-108 17.5 t-101.5 -22t-88.5 -56t-75 -74.5t-60 -76.5q-12 8 -21 13.5t-16.5 10.5l-15 10t-17.5 12q-14 10 -28.5 19t-30.5 19q34 54 79.5 108.5t101 97.5t120.5 70t137 27q84 0 158.5 -21.5t142.5 -57t131.5 -81.5t126 -95t125.5 -97t130 -87l-63 -182q-144 15 -280 3.5t-257.5 -46 t-224 -88.5t-178 -124t-121 -152.5t-52.5 -173.5q-1 -80 22.5 -146t65 -118t99.5 -90.5t126 -64t143.5 -38t153.5 -12.5zM754 1442l-147 -147l-148 148l147 147z"/>
    <glyph glyph-name="uniFEA7" unicode="خ" horiz-adv-x="1548" arabic-form="initial" d="M-81 98q0 33 23.5 55.5t56.5 22.5h198q135 0 273 27.5t273.5 72.5t267 103t254.5 120l-298 124q-47 22 -92.5 43t-88 37.5t-81 26t-71.5 9.5q-38 0 -72 -13.5t-63.5 -35.5t-54.5 -49t-45 -54t-34 -50.5t-22 -37.5l-134 80q11 23 31.5 56.5t58.5 79.5q74 90 159 135.5 t176 45.5q47 0 95.5 -11t98.5 -29t101.5 -41.5t104.5 -48.5q58 -27 105.5 -51t93.5 -46.5t95.5 -45t111.5 -45.5q8 -44 16 -79.5t16 -77.5q-34 -14 -56 -23.5t-41.5 -19t-41.5 -21t-58 -29.5q-108 -53 -235 -108t-265.5 -99.5t-285 -72.5t-292.5 -28h-198q-33 0 -56.5 23 t-23.5 55zM739 1285l-147 -147l-148 148l147 147z"/>
    <glyph glyph-name="uniFEA8" unicode="خ" horiz-adv-x="1669" arabic-form="medial" d="M-79 97q0 32 23 55.5t56 23.5h183q136 0 261.5 25t243 66t229.5 93t220 106l60 30q-44 15 -95.5 39t-106.5 50.5t-112 54t-113 49t-109 35.5t-100 14q-56 0 -104 -28.5t-85.5 -67.5t-63.5 -79.5t-38 -63.5l-130 88q31 57 72.5 113t94 99.5t116 70.5t138.5 27 q68 0 137.5 -19t139 -48t139 -65t138.5 -70.5t137 -63t135 -42.5q4 -23 8.5 -42t8 -37t7.5 -36.5t9 -40.5l-27 -12t-20 -9t-29 -14t-55 -27q13 -45 40 -77t61 -53.5t72 -34.5t74 -19.5t67 -8.5t50 -2h6h8q33 0 56 -23.5t23 -55.5q0 -33 -23 -55t-56 -22h-14q-95 0 -176.5 19 t-146.5 55t-112 88t-73 118q-105 -53 -217.5 -103t-232.5 -90t-248 -64t-264 -24l-183 1q-33 0 -56 22t-23 55zM687 1224l-147 -147l-148 148l147 147z"/>
    <glyph glyph-name="uniFEA6" unicode="خ" horiz-adv-x="1603" arabic-form="final" d="M853 -608q141 0 267 39.5t248 124.5l90 -129q-142 -95 -302 -147t-341 -52q-150 0 -282 40.5t-230.5 118.5t-155.5 191t-57 257v21t1 22q6 102 46 195.5t110 174t168 146t219 111t263 68.5t301 20q-36 19 -78 50t-88 65.5t-95.5 69.5t-101.5 63.5t-106 46t-108 17.5 t-101.5 -22t-88.5 -56t-75 -74.5t-60 -76.5q-12 8 -21 13.5t-16.5 10.5l-15 10t-17.5 12q-14 10 -28.5 19t-30.5 19q34 54 79.5 108.5t101 97.5t120.5 70t137 27q84 0 158.5 -21.5t142.5 -57t131.5 -81.5t126 -95t125.5 -97t130 -87l-51 -159l-154 -10q-1 -8 -1 -15.5v-13.5 q0 -15 2 -34t7 -39t14 -39.5t23 -37.5q26 -31 58 -50.5t73.5 -30.5t93.5 -15t118 -4q32 0 55.5 -23.5t23.5 -56.5q0 -32 -23.5 -54t-55.5 -22q-175 0 -288.5 41.5t-179.5 119.5q-32 45 -53 102.5t-24 121.5q-2 14 1 38q-166 -16 -311 -66.5t-254 -128t-175 -176.5t-75 -211 q-1 -80 22.5 -146t65 -118t99.5 -90.5t126 -64t143.5 -38t153.5 -12.5zM759 1384l-147 -147l-148 148l147 147z"/>
    <glyph glyph-name="uni0630" unicode="ذ" horiz-adv-x="1111" arabic-form="isolated" d="M545 21q-45 0 -106.5 10t-122 26.5t-112 37.5t-77.5 42l67 153q36 -21 81.5 -40t97 -33.5t105.5 -23.5t106 -9q74 0 140.5 20.5t109.5 73.5q35 43 28.5 103.5t-40 128.5t-86.5 138t-112 131.5t-116 108.5t-99 70q18 40 33 74t32 72q55 -30 111.5 -74t110.5 -97t103 -113 t89 -123t69.5 -126t43.5 -122q7 -33 10 -69t-1.5 -71t-17 -68.5t-36.5 -61.5q-89 -107 -247 -141q-35 -9 -76.5 -13t-87.5 -4zM609 1464l-147 -147l-148 148l147 147z"/>
    <glyph glyph-name="uniFEAC" unicode="ذ" horiz-adv-x="1247" arabic-form="final" d="M490 20q-54 0 -107.5 11.5t-104 33t-97 53t-85.5 70.5q25 35 46 63.5t45 62.5q79 -68 165.5 -101t162.5 -33q38 0 83 7.5t80 21.5q26 10 52.5 23t50.5 26t42.5 25.5t29.5 23.5l-313 754q41 17 73.5 31t70.5 30q30 -74 76 -183q38 -94 97.5 -236t141.5 -340 q17 -43 33 -77.5t42.5 -59t67.5 -37.5t107 -13q32 0 55.5 -22.5t23.5 -55.5t-23.5 -55.5t-55.5 -22.5q-62 0 -111 11t-87.5 30.5t-68 45t-51.5 54.5q-17 -13 -40.5 -26.5t-50 -26t-53.5 -24.5t-51 -22h1q-54 -21 -113.5 -31.5t-133.5 -10.5zM774 1468l-147 -147l-148 148 l147 147z"/>
    <glyph glyph-name="uni0688" unicode="ڈ" horiz-adv-x="1149" arabic-form="isolated" d="M553 21q-45 0 -106.5 10t-122 26.5t-112 37.5t-77.5 42l67 153q36 -21 81.5 -40t97 -33.5t105.5 -23.5t106 -9q74 0 140.5 20.5t109.5 73.5q35 43 28.5 103.5t-40 128.5t-86.5 138t-112 131.5t-116 108.5t-99 70q18 40 33 74t32 72q55 -30 111.5 -74t110.5 -97t103 -113 t89 -123t69.5 -126t43.5 -122q7 -33 10 -69t-1.5 -71t-17 -68.5t-36.5 -61.5q-89 -107 -247 -141q-35 -9 -76.5 -13t-87.5 -4zM676 1409q-52 -27 -113 -36q-81 -11 -177 0q91 124 168 180q39 28 68 41q42 18 77 12q42 -7 61 -42q18 -36 1 -75q-2 -4 -2 -3l2 3q1 3 1 4 q1 1 -1 -4q-22 -47 -85 -80zM788 1648q-49 34 -113 34q-57 0 -123 -39q-47 -28 -104 -81q0 78 -8 181l-5 52l-6 53q-8 68 -11 106l-80 -10q14 -76 24 -173l5 -54l4 -54q3 -60 0 -108l-4 -42l-1 -13l-2 -14q-2 -17 -8 -25l-32 -43l-6 -10l-7 -10q-8 -11 -18 -9 q-51 14 -100 33l-15 -36l-15 -35q223 -85 417 -52q110 19 193 88q35 29 55 73q21 47 17 89v9v-5q1 -4 1 -6t-1 2q-3 61 -57 99z"/>
    <glyph glyph-name="uniFB89" unicode="ڈ" horiz-adv-x="1242" arabic-form="final" d="M490 20q-54 0 -107.5 11.5t-104 33t-97 53t-85.5 70.5q25 35 46 63.5t45 62.5q79 -68 165.5 -101t162.5 -33q38 0 83 7.5t80 21.5q26 10 52.5 23t50.5 26t42.5 25.5t29.5 23.5l-313 754q41 17 73.5 31t70.5 30q30 -74 76 -183q38 -94 97.5 -236t141.5 -340 q17 -43 33 -77.5t42.5 -59t67.5 -37.5t107 -13q32 0 55.5 -22.5t23.5 -55.5t-23.5 -55.5t-55.5 -22.5q-62 0 -111 11t-87.5 30.5t-68 45t-51.5 54.5q-17 -13 -40.5 -26.5t-50 -26t-53.5 -24.5t-51 -22h1q-54 -21 -113.5 -31.5t-133.5 -10.5zM708 1385q-52 -27 -113 -36 q-81 -11 -177 0q91 124 168 180q39 28 68 41q42 18 77 12q42 -7 61 -42q18 -36 1 -75q-2 -4 -2 -3l2 3q1 3 1 4q1 1 -1 -4q-22 -47 -85 -80zM820 1624q-49 34 -113 34q-57 0 -123 -39q-47 -28 -104 -81q0 78 -8 181l-5 52l-6 53q-8 68 -11 106l-80 -10q14 -76 24 -173l5 -54 l4 -54q3 -60 0 -108l-4 -42l-1 -13l-2 -14q-2 -17 -8 -25l-32 -43l-6 -10l-7 -10q-8 -11 -18 -9q-51 14 -100 33l-15 -36l-15 -35q223 -85 417 -52q110 19 193 88q35 29 55 73q21 47 17 89v9v-5q1 -4 1 -6t-1 2q-3 61 -57 99z"/>
    <glyph glyph-name="uni0632" unicode="ز" horiz-adv-x="722" arabic-form="isolated" d="M481 625q27 -93 50 -181q10 -38 20 -78t18.5 -79.5t15.5 -76t11 -66.5q0 -12 1.5 -24.5t1.5 -29.5q0 -83 -24.5 -162t-67.5 -151.5t-102.5 -139t-129.5 -125.5t-148.5 -109.5t-159.5 -91.5l-69 140q105 54 203 123.5t174 151t122 173.5t46 191q0 10 -1 20t-2 21 q-4 37 -12.5 80.5t-19.5 89t-23 89t-23 81t-20 65.5t-13 42zM545 1056l-147 -147l-148 148l147 147z"/>
    <glyph glyph-name="uniFEB0" unicode="ز" horiz-adv-x="819" arabic-form="final" d="M605 69q0 -83 -24.5 -161.5t-68 -151t-103 -139t-129.5 -125.5t-148 -110t-158 -92q-19 40 -35.5 71t-34.5 69q69 36 136 79t127.5 91.5t112 103t89 113.5t58.5 122.5t21 130.5q0 10 -0.5 20t-1.5 20q-7 54 -20.5 115t-29.5 121t-32.5 114.5t-28.5 94.5l150 46 q38 -112 75.5 -192.5t78 -132t85 -76t96.5 -24.5h5q33 0 56 -23.5t23 -55.5q0 -33 -23 -55t-56 -22q-13 0 -35 1.5t-51 11t-63 30.5t-71 59v-53zM538 994l-147 -147l-148 148l147 147z"/>
    <glyph glyph-name="uni0691" unicode="ڑ" horiz-adv-x="864" arabic-form="isolated" d="M481 625q27 -93 50 -181q10 -38 20 -78t18.5 -79.5t15.5 -76t11 -66.5q0 -12 1.5 -24.5t1.5 -29.5q0 -83 -24.5 -162t-67.5 -151.5t-102.5 -139t-129.5 -125.5t-148.5 -109.5t-159.5 -91.5l-69 140q105 54 203 123.5t174 151t122 173.5t46 191q0 10 -1 20t-2 21 q-4 37 -12.5 80.5t-19.5 89t-23 89t-23 81t-20 65.5t-13 42zM586 1061q-52 -27 -113 -36q-81 -11 -177 0q91 124 168 180q39 28 68 41q42 18 77 12q42 -7 61 -42q18 -36 1 -75q-2 -4 -2 -3l2 3q1 3 1 4q1 1 -1 -4q-22 -47 -85 -80zM698 1300q-49 34 -113 34q-57 0 -123 -39 q-47 -28 -104 -81q0 78 -8 181l-5 52l-6 53q-8 68 -11 106l-80 -10q14 -76 24 -173l5 -54l4 -54q3 -60 0 -108l-4 -42l-1 -13l-2 -14q-2 -17 -8 -25l-32 -43l-6 -10l-7 -10q-8 -11 -18 -9q-51 14 -100 33l-15 -36l-15 -35q223 -85 417 -52q110 19 193 88q35 29 55 73 q21 47 17 89v9v-5q1 -4 1 -6t-1 2q-3 61 -57 99z"/>
    <glyph glyph-name="uniFB8D" unicode="ڑ" horiz-adv-x="822" arabic-form="final" d="M605 69q0 -83 -24.5 -161.5t-68 -151t-103 -139t-129.5 -125.5t-148 -110t-158 -92q-19 40 -35.5 71t-34.5 69q69 36 136 79t127.5 91.5t112 103t89 113.5t58.5 122.5t21 130.5q0 10 -0.5 20t-1.5 20q-7 54 -20.5 115t-29.5 121t-32.5 114.5t-28.5 94.5l150 46 q38 -112 75.5 -192.5t78 -132t85 -76t96.5 -24.5h5q33 0 56 -23.5t23 -55.5q0 -33 -23 -55t-56 -22q-13 0 -35 1.5t-51 11t-63 30.5t-71 59v-53zM591 1008q-52 -27 -113 -36q-81 -11 -177 0q91 124 168 180q39 28 68 41q42 18 77 12q42 -7 61 -42q18 -36 1 -75q-2 -4 -2 -3 l2 3q1 3 1 4q1 1 -1 -4q-22 -47 -85 -80zM703 1247q-49 34 -113 34q-57 0 -123 -39q-47 -28 -104 -81q0 78 -8 181l-5 52l-6 53q-8 68 -11 106l-80 -10q14 -76 24 -173l5 -54l4 -54q3 -60 0 -108l-4 -42l-1 -13l-2 -14q-2 -17 -8 -25l-32 -43l-6 -10l-7 -10q-8 -11 -18 -9 q-51 14 -100 33l-15 -36l-15 -35q223 -85 417 -52q110 19 193 88q35 29 55 73q21 47 17 89v9v-5q1 -4 1 -6t-1 2q-3 61 -57 99z"/>
    <glyph glyph-name="uni0698" unicode="ژ" horiz-adv-x="930" arabic-form="isolated" d="M579 625q27 -93 50 -181q10 -38 20 -78t18.5 -79.5t15.5 -76t11 -66.5q0 -12 1.5 -24.5t1.5 -29.5q0 -83 -24.5 -162t-67.5 -151.5t-102.5 -139t-129.5 -125.5t-148.5 -109.5t-159.5 -91.5l-69 140q105 54 203 123.5t174 151t122 173.5t46 191q0 10 -1 20t-2 21 q-4 37 -12.5 80.5t-19.5 89t-23 89t-23 81t-20 65.5t-13 42zM529 928l146 146l148 -148l-146 -146zM123 929l146 147l148 -148l-146 -147zM346 1219l132 132l133 -133l-132 -132z"/>
    <glyph glyph-name="uniFB8B" unicode="ژ" horiz-adv-x="871" arabic-form="final" d="M655 69q0 -83 -24.5 -161.5t-68 -151t-103 -139t-129.5 -125.5t-148 -110t-158 -92q-19 40 -35.5 71t-34.5 69q69 36 136 79t127.5 91.5t112 103t89 113.5t58.5 122.5t21 130.5q0 10 -0.5 20t-1.5 20q-7 54 -20.5 115t-29.5 121t-32.5 114.5t-28.5 94.5l150 46 q38 -112 75.5 -192.5t78 -132t85 -76t96.5 -24.5h5q33 0 56 -23.5t23 -55.5q0 -33 -23 -55t-56 -22q-13 0 -35 1.5t-51 11t-63 30.5t-71 59v-53zM497 891l146 146l148 -148l-146 -146zM91 892l146 147l148 -148l-146 -147zM314 1182l132 132l133 -133l-132 -132z"/>
    <glyph glyph-name="uni0634" unicode="ش" horiz-adv-x="2681" arabic-form="isolated" d="M2420 897q10 -18 24 -47.5t30 -67t32 -81.5t29 -91.5t20.5 -97t7.5 -97.5q-1 -82 -19 -153.5t-56.5 -124.5t-99 -83.5t-145.5 -30.5q-26 0 -56.5 9.5t-62 27.5t-61 45t-53.5 63q-66 -78 -141 -110t-156 -36q-45 -2 -85 10.5t-70 29.5q-35 19 -65 45q8 -130 -16.5 -237.5 t-75 -192.5t-123 -147t-158.5 -101.5t-183 -56.5t-196 -11q-128 0 -234 36t-187 109q-73 65 -121 156t-63 198q-26 174 17.5 349t141.5 333q34 -25 63 -44t60 -42q-35 -56 -63 -127t-45 -148t-22.5 -154t4.5 -145q4 -27 14 -65t30.5 -78t52.5 -79.5t80 -70.5t114 -50 t155 -19q157 7 270.5 42t186.5 99t107.5 157t34.5 216q0 76 -12.5 147t-33.5 137t-49 126t-59 115l138 78q4 -11 12 -29q7 -15 17 -38t25 -56q27 -62 59 -121.5t72 -106t89.5 -75t110.5 -29.5q64 3 102 31.5t58 73.5t26.5 103t6.5 120v122q45 4 83.5 8t81.5 9q1 -9 1 -20 v-20.5t1 -24.5q1 -26 3.5 -66.5t9.5 -86t19 -92t32 -83.5t49.5 -60t70.5 -23q38 0 68 22t50 58t30 82.5t9 94.5q-4 56 -17 111t-31 105t-38 93t-37 76zM1952 1142l146 146l148 -148l-146 -146zM1546 1143l146 147l148 -148l-146 -147zM1769 1433l132 132l133 -133l-132 -132 z"/>
    <glyph glyph-name="uniFEB7" unicode="ش" horiz-adv-x="1609" arabic-form="initial" d="M-72 97q0 30 21 53t51 26q59 2 107.5 25t87 61t67.5 87t51 102.5t37.5 108t25.5 104.5l157 -31q-8 -27 -19 -64t-21 -78t-17 -83t-7 -79q0 -30 5.5 -59.5t20 -52t39.5 -36.5t63 -14q53 0 95.5 26.5t75.5 70.5t57.5 100t42.5 114.5t29.5 115t18.5 100.5q42 -8 77.5 -15 t74.5 -14v3v-4q-4 -21 -10 -56t-12 -75t-10.5 -81t-4.5 -74q0 -42 7 -80.5t26 -68t51.5 -47.5t82.5 -18q44 0 76 15t52.5 41.5t30.5 62t10 77.5q0 55 -13.5 118t-33.5 124.5t-42.5 115.5t-40.5 90l139 74q13 -27 38.5 -82.5t50 -127t43 -152t18.5 -157.5q0 -81 -22.5 -147 t-68 -112.5t-114.5 -71.5t-161 -24q-36 0 -73 13t-71.5 35t-65.5 52t-54 65q-66 -76 -142.5 -120.5t-156.5 -44.5q-35 0 -72.5 10.5t-72.5 31.5t-64.5 52t-47.5 72q-33 -35 -68.5 -63.5t-77 -48.5t-89.5 -31t-105 -12h1q-30 2 -51.5 24t-21.5 54zM987 1156l146 146l148 -148 l-146 -146zM581 1157l146 147l148 -148l-146 -147zM804 1447l132 132l133 -133l-132 -132z"/>
    <glyph glyph-name="uniFEB8" unicode="ش" horiz-adv-x="1876" arabic-form="medial" d="M-74 98q0 31 24.5 53.5t55.5 24.5h8q46 0 86.5 23.5t76 60t64.5 81.5t52 88q21 40 38.5 80.5t30 76t21.5 63.5t14 45v2q38 -10 76 -20.5t76 -21.5q-2 -4 -2 -6l1 1q-7 -26 -16.5 -71t-16.5 -96q-4 -31 -7 -65.5t-1.5 -69t9 -68.5t24.5 -63v1q19 -34 59 -39 q27 -8 56.5 0.5t52.5 25.5q48 35 92.5 111t79.5 185v-1q17 50 29.5 99.5t23.5 107.5l155 -29q-10 -53 -14.5 -96.5t-6.5 -85.5q-1 -11 -1 -23v-23q0 -78 14 -136t40 -90q13 -17 35.5 -30.5t65.5 -13.5q62 0 99 43v-1q36 39 58 114.5t28 177.5q1 20 1.5 40t0.5 37 q0 28 -2 55.5t-4 56.5l159 14q4 -59 14 -127t37 -155q42 -128 101.5 -193t138.5 -65h8q33 0 55.5 -22.5t22.5 -55.5q0 -32 -22.5 -55t-55.5 -23h-8q-76 0 -143 32t-120 93q-16 17 -34.5 43.5t-38.5 60.5q-20 -45 -39.5 -78.5t-38.5 -53.5q-42 -48 -97 -72.5t-120 -24.5 q-69 0 -126 26t-97 77q-14 17 -28.5 43.5t-31.5 67.5q-74 -111 -138 -158q-41 -28 -86 -43.5t-91 -15.5q-53 0 -93 15t-70.5 43.5t-54.5 69.5t-45 92q-51 -69 -87 -102q-118 -115 -259 -115h-9q-32 0 -55.5 23t-23.5 55zM1088 677v1v-1zM1055 1125l146 146l148 -148 l-146 -146zM649 1126l146 147l148 -148l-146 -147zM872 1416l132 132l133 -133l-132 -132z"/>
    <glyph glyph-name="uniFEB6" unicode="ش" horiz-adv-x="2889" arabic-form="final" d="M2891 176q32 0 55.5 -23t23.5 -56q0 -32 -23.5 -54.5t-55.5 -22.5h-9h-11q-157 0 -264 125q-14 14 -32 41.5t-40 65.5q-22 -50 -41.5 -83t-36.5 -53q-42 -45 -96 -71t-120 -26q-26 0 -56 9.5t-61 28.5t-60 46t-53 62q-65 -75 -143 -108t-156 -38q-47 -2 -87 7.5t-69 21.5 q-34 14 -63 32l2 -52q7 -105 -17.5 -197t-73.5 -168t-119.5 -134.5t-156.5 -98t-184 -58.5t-202 -15q-125 0 -232.5 38t-188.5 107q-35 33 -65.5 73t-54.5 85.5t-40.5 95t-23.5 101.5q-9 60 -9 117q0 91 15.5 171.5t34.5 140.5q26 90 57.5 156.5t56.5 104.5q34 -25 65 -48.5 t62 -46.5q-18 -28 -41 -79t-43 -116.5t-34 -140t-14 -149.5q0 -46 6 -88q4 -28 14.5 -65.5t31.5 -77.5t55 -79.5t86 -71t124 -50.5t169 -19q219 10 353 88.5t182 223.5q20 62 28.5 126t8.5 129q0 112 -25.5 224t-81.5 240q18 12 34.5 20.5t32.5 16.5l32 16t33 19q2 -2 8 -17 q5 -13 16 -39.5t30 -75.5q21 -59 43.5 -114.5t54 -98.5t76 -69.5t108.5 -26.5q53 0 90.5 18t62 49.5t39 73.5t22.5 90t10.5 100t4.5 103v15l164 -11l-7 -152q0 -46 5.5 -97.5t21.5 -94.5t46 -71t80 -28q34 0 54 13t40 36v-1q36 39 61.5 114.5t30.5 178.5q2 47 -2 92.5 t-8 96.5l164 11q2 -30 5 -60t7.5 -62.5t11 -69.5t16.5 -82q42 -128 104.5 -196t141.5 -68h20zM2050 1050l146 146l148 -148l-146 -146zM1644 1051l146 147l148 -148l-146 -147zM1867 1341l132 132l133 -133l-132 -132z"/>
    <glyph glyph-name="uni0636" unicode="ض" horiz-adv-x="2894" arabic-form="isolated" d="M836 -629q-23 0 -48 1t-51 5q-97 7 -176 30.5t-143 61.5q-60 35 -103.5 83.5t-75.5 109.5q-28 60 -42 127t-13 144q0 62 10 127t27 134q13 52 29.5 100t33 87.5t31 70t25.5 48.5l132 -85q-14 -26 -36.5 -78t-43.5 -118.5t-36 -142.5t-15 -151q0 -52 9.5 -101.5 t30.5 -92.5q42 -85 136.5 -135.5t232.5 -62.5q21 -2 43.5 -3t42.5 -1q112 0 202.5 29t156.5 85q48 45 79.5 95t50 101.5t26.5 103.5t8 100q0 78 -13.5 158t-33 153t-40 133t-34.5 98q37 14 75.5 29.5t70.5 26.5q17 -39 30.5 -70.5t26 -58.5t26.5 -52t31 -52q35 -56 72 -88.5 t60 -46.5q40 74 106 162t152 171v-1q87 82 187 142.5t206 80.5h-1q55 11 112 9t110 -16.5t100.5 -42t85.5 -68.5q54 -54 80 -123t23 -139q-9 -104 -63 -193t-142 -149q-53 -33 -111 -55t-116.5 -36t-113.5 -20.5t-101 -7.5q-12 -1 -23.5 -1h-23.5q-89 0 -165 9.5t-145.5 31 t-136.5 55.5t-137 82q0 -9 0.5 -24.5t1 -32t1 -32t0.5 -24.5q0 -83 -15 -165.5t-47 -152.5q-28 -63 -67.5 -116.5t-88.5 -95.5q-88 -72 -205 -111t-257 -39zM1767 201q78 -29 162.5 -43t174.5 -14q51 0 104.5 6t105 18t99 29.5t86.5 40.5q57 38 93 94.5t43 125.5q1 24 -5 46 t-15 40.5t-20 33t-20 23.5q-30 30 -62.5 47t-66.5 24.5t-69 7t-69 -6.5h1q-83 -14 -162 -64t-150 -117q-39 -37 -74 -76.5t-65 -77.5t-53 -73.5t-38 -63.5zM2421 1250l-147 -147l-148 148l147 147z"/>
    <glyph glyph-name="uniFEBF" unicode="ض" horiz-adv-x="1894" arabic-form="initial" d="M739 169q66 -13 142 -16.5t154 1t154 16t143 30t120 42.5t86 54q42 38 65 81t27 86.5t-10 84.5t-45 75q-47 40 -95.5 58t-97 18.5t-96.5 -15t-95 -41t-91.5 -59t-86.5 -70.5v1q-47 -44 -90.5 -94t-80 -97t-63.5 -88t-40 -67zM-79 98q0 33 23.5 55.5t55.5 22.5 q64 0 109 10t76 25.5t50 33.5t31 34q37 51 55 117.5t34 144.5q8 38 15.5 73.5t16.5 67.5l151 -45q-2 -5 -7 -29t-10 -53.5t-8.5 -58t-1.5 -41.5q0 -52 16.5 -114t65.5 -124q14 32 43 79.5t69 103t90.5 114.5t108.5 114q54 51 117 95t131 75.5t139 46.5t140.5 9.5t135 -35 t122.5 -87.5q49 -62 73 -136t19.5 -149t-39.5 -146t-104 -127q-66 -54 -147.5 -90t-168 -57t-174 -30t-166.5 -9q-105 0 -184.5 4.5t-146.5 25.5t-125.5 64.5t-121.5 121.5q-68 -94 -165.5 -138.5t-229.5 -45.5h-9q-32 0 -55.5 22.5t-23.5 55.5zM1446 1250l-147 -147 l-148 148l147 147z"/>
    <glyph glyph-name="uniFEC0" unicode="ض" horiz-adv-x="1931" arabic-form="medial" d="M-79 97q0 33 23 56t55 23h9q122 3 170 26q26 13 47 31.5t41 44.5q36 48 58 115.5t42 158.5q8 33 15 65.5t16 64.5l149 -46q-11 -41 -22 -86t-11 -103q0 -26 2 -57t10.5 -62.5t26.5 -61.5t50 -52q15 32 43.5 80t68 103.5t88.5 114.5t105 114q42 39 91 74.5t101 64t106 49 t105 30.5h-1q56 11 112 10.5t108.5 -14t99.5 -40.5t85 -68q55 -55 73 -124t15 -138q-6 -76 -44 -152t-104 -142h279q33 0 56.5 -23t23.5 -56t-23.5 -55t-56.5 -22l-252 -1q-108 0 -174 6.5t-107 25.5q-107 -29 -213.5 -45.5t-200.5 -16.5q-27 0 -74 2.5t-103.5 10t-117.5 22 t-115.5 39.5t-97.5 61.5t-63 87.5q-80 -106 -173 -147q-93 -45 -243 -45q-32 0 -55 22t-23 55zM756 170q42 -5 71.5 -8t54 -5t47 -3t48.5 -1q76 0 156.5 7.5t156 24.5t142.5 44.5t117 67.5h-1q92 74 98 184q3 50 -11 87.5t-32 54.5q-31 30 -63 46.5t-65 22.5t-67 4t-69 -7 q-83 -13 -167.5 -61.5t-155.5 -116.5v1q-47 -44 -88.5 -93t-75 -95.5t-58.5 -87t-38 -66.5zM1501 1228l-147 -147l-148 148l147 147z"/>
    <glyph glyph-name="uniFEBE" unicode="ض" horiz-adv-x="2867" arabic-form="final" d="M1730 200q81 -30 166.5 -44t176.5 -14q51 0 103.5 6t103.5 18t98 29.5t86 41.5q45 24 76 69.5t42.5 98t2 104.5t-44.5 90q-29 30 -61 47.5t-66 25t-69.5 7t-70.5 -6.5q-42 -7 -82 -23.5t-79 -40.5t-76 -53.5t-72 -62.5q-39 -37 -75 -77t-66 -78.5t-54 -74t-39 -62.5z M2868 20q-46 0 -89.5 8.5t-81.5 22t-68.5 31.5t-50.5 38q-63 -40 -127 -65t-124.5 -40t-116 -21.5t-102.5 -7.5q-12 -1 -23.5 -1h-23.5q-101 0 -197 16t-174 45q-49 18 -102.5 47.5t-113.5 72.5q1 -11 2 -29t2 -37t2 -36.5t1 -28.5v-27t-2 -27q-5 -68 -20.5 -130.5 t-39.5 -117.5q-29 -61 -69 -116t-88 -97q-88 -72 -205 -111t-256 -39q-23 0 -48 1t-50 3q-96 10 -176.5 32.5t-143.5 61.5q-120 71 -180 193q-57 116 -55 271q2 125 37 261q13 52 29 100t32 88t30.5 71t25.5 50q38 -25 68.5 -44.5t66.5 -42.5q-13 -26 -35 -77.5t-43.5 -118 t-37.5 -143.5t-16 -152q0 -52 9 -101t31 -93q44 -90 135 -138t235 -61q40 -3 81 -3q228 0 364 112q45 39 74.5 84t48 91.5t27 92t11.5 85.5q1 13 1.5 26t0.5 27q0 82 -15.5 167t-36 159.5t-40.5 131t-29 80.5l147 58q38 -88 76 -153.5t73 -117.5q14 -21 36.5 -45.5 t60.5 -52.5q19 36 46.5 77t60.5 84.5t72 87.5t83 85q87 85 185.5 143t202.5 78h-1q55 11 112 9.5t110 -16t100.5 -42.5t84.5 -70q43 -50 67 -109t28.5 -121t-11 -124.5t-49.5 -119.5q7 -10 26 -20t43.5 -18.5t52 -14.5t52.5 -6h8q33 0 56 -23t23 -56q0 -32 -23 -54.5 t-56 -22.5zM2443 1201l-147 -147l-148 148l147 147z"/>
    <glyph glyph-name="uni0638" unicode="ظ" horiz-adv-x="1787" arabic-form="isolated" d="M856 20q-33 0 -64.5 1t-61.5 3h-4q-146 8 -298.5 40.5t-309.5 91.5q16 41 28.5 75t27.5 72q59 -23 122.5 -42.5t133.5 -36.5q21 31 58.5 82t83.5 110q7 48 12 90t8 80.5t4.5 74.5t1.5 73q0 62 -3.5 132.5t-10.5 161.5q-7 99 -15.5 183.5t-16 150.5t-13 110t-8.5 61 l157 21q3 -22 9.5 -81t14.5 -136t17 -162.5t15 -161.5q3 -32 4.5 -55t3 -44.5t2 -45t1.5 -56t1.5 -79t2.5 -112.5q269 256 483 287q72 12 148.5 -2.5t140.5 -53.5t106.5 -100t47.5 -141q3 -52 -8 -103t-31 -96.5t-45.5 -83.5t-52.5 -64q-82 -79 -173 -127t-182 -74 t-177.5 -34.5t-159.5 -8.5zM603 192l25 -2.5t31 -3t31 -3t25 -1.5q5 0 10 -0.5t10 -0.5l62 -2t63 -1q67 0 141 4.5t149.5 24t151 58t144.5 107.5q19 19 35.5 46.5t28.5 59t17 65t2 63.5q-6 48 -32.5 78.5t-64 47t-82 20.5t-84.5 0q-105 -17 -229 -97.5t-261 -232.5z M1446 1338l-147 -147l-148 148l147 147z"/>
    <glyph glyph-name="uniFEC7" unicode="ظ" horiz-adv-x="1520" arabic-form="initial" d="M340 177q16 -1 61.5 -1h129.5q72 0 151 4t161 23t166.5 57t168.5 107q25 22 47.5 48t38 56t22 63.5t0.5 68.5q-8 45 -37.5 76.5t-69.5 49t-85.5 22t-86.5 -2.5q-106 -23 -228.5 -107.5t-260.5 -235.5v1q-9 -10 -19 -22t-29 -36t-49.5 -64.5t-80.5 -106.5zM-82 98 q0 32 23.5 55t55.5 23h9h153q3 5 11 17.5t13 22.5l-1 -1q17 30 48 80t85 117q11 67 17 162.5t7 223.5q1 120 -5.5 245.5t-17.5 237.5l-21 215l163 29q22 -172 33 -348.5t11 -365.5q0 -18 -0.5 -44t-1 -54t-1 -54t-0.5 -45q136 126 257.5 198t226.5 92q47 8 94 7.5t92 -11 t87 -32.5t78 -56q39 -42 64 -92t30 -112q4 -53 -7.5 -105t-32.5 -98.5t-48 -85.5t-53 -67q-87 -77 -178 -123t-180 -70.5t-173.5 -32t-157.5 -7.5l-592 1h-9q-32 0 -55.5 22t-23.5 56zM1195 1343l-147 -147l-148 148l147 147z"/>
    <glyph glyph-name="uniFEC8" unicode="ظ" horiz-adv-x="1570" arabic-form="medial" d="M484 175q23 0 45 -0.5t45 -0.5q84 0 162 6t153.5 26t149 58t147.5 103q20 20 37.5 47.5t30.5 58.5t20 64t6 63q-8 47 -35.5 77.5t-64.5 47.5t-80 22t-82 1q-52 -9 -128.5 -44t-166 -103.5t-186.5 -173t-189 -251.5zM-86 98q0 33 22.5 55.5t55.5 22.5h8h156q24 38 44.5 68 t40 56.5t38 50t38.5 47.5l4 7q7 9 12 31.5t8.5 55.5t5 75.5t1.5 91.5q0 65 -2 140t-6 153t-9 155.5t-11 148t-12 130.5t-12 103l155 28q28 -186 43 -381.5t15 -415.5v-108q275 257 484 289q73 11 149 -2.5t139 -50.5t106 -97.5t51 -143.5q4 -53 -7.5 -104t-32 -96.5 t-46.5 -83.5t-51 -65q-8 -8 -22 -21.5t-28 -27.5q-17 -16 -35 -33h373q33 0 55.5 -22t22.5 -55q0 -32 -22.5 -55t-55.5 -23q-20 0 -40.5 -0.5t-48 -1t-66 -0.5h-93.5q-43 0 -90.5 1t-96.5 5.5t-98.5 13.5t-96.5 24q-100 -29 -188 -36t-166 -7h-613q-33 0 -55.5 22.5 t-22.5 55.5zM1204 1354l-147 -147l-148 148l147 147z"/>
    <glyph glyph-name="uniFEC6" unicode="ظ" horiz-adv-x="1868" arabic-form="final" d="M948 20q-21 -1 -41 -1h-40q-23 0 -49.5 0.5t-76.5 3.5h-4q-146 8 -298.5 40.5t-309.5 91.5q16 41 28.5 75t27.5 72q59 -23 122.5 -42.5t133.5 -36.5q21 31 57 80.5t77 100.5l25 36q7 48 9.5 86.5t2.5 72t-1.5 66t-1.5 68.5q0 62 -3.5 132.5t-10.5 161.5t-14.5 171.5 t-14.5 144.5t-13 109t-9 66l155 35q2 -15 5.5 -46.5t8 -73.5t10 -91t10.5 -99t9.5 -97.5t8.5 -86.5l4 -47q4 -48 6 -75t2.5 -48t1 -43t1.5 -59l4 -167q269 256 483 287q17 3 34 5t34 2q65 0 130.5 -21t118.5 -60.5t87.5 -96t38.5 -126.5q3 -52 -12.5 -114t-47 -122 t-77 -112.5t-102.5 -83.5l403 -2h8q33 0 55.5 -22.5t22.5 -55.5q0 -32 -22.5 -55t-55.5 -23h-920zM930 178q62 3 127 12.5t131 32t132.5 60t131.5 96.5q18 20 35.5 46.5t30 56t19 61.5t3.5 62q-5 40 -26 68t-52 46t-67.5 26.5t-71.5 8.5q-25 0 -46 -3q-105 -17 -229 -103 t-261 -238l-175 -222zM1430 1355l-147 -147l-148 148l147 147z"/>
    <glyph glyph-name="uni063A" unicode="غ" horiz-adv-x="1548" arabic-form="isolated" d="M828 -715q-72 0 -147 11.5t-147.5 38.5t-141 70t-126.5 106q-79 85 -113.5 198t-26.5 235q5 96 41.5 186.5t98.5 171.5q33 40 74 78t87.5 71.5t97 62.5t101.5 50l-2 -1l56 19l-47 24q-72 51 -109 128t-37 170q0 83 33.5 156t89.5 128t130 88.5t155 36.5q53 3 106.5 -8.5 t104.5 -34t97.5 -53.5t85.5 -67q-24 -29 -50 -61.5t-49 -60.5q-48 37 -97 66q-42 25 -93 44t-97 18q-54 -9 -103 -29.5t-85 -55t-55 -84t-14 -115.5q8 -89 77 -137q40 -27 102 -44t143 -17q24 0 50 1.5t52 5.5q46 6 85.5 13.5t69.5 14.5q34 8 64 16q9 -42 13 -82t12 -81 q-52 -9 -106 -18.5t-130 -21.5q-88 -15 -153.5 -29.5t-117.5 -30.5t-96 -34.5t-89 -40.5q-24 -12 -57.5 -32t-70 -48.5t-72.5 -65.5t-65.5 -83.5t-49.5 -102.5t-24 -121v1q-8 -117 34.5 -207t119.5 -151t180 -92.5t215 -31.5q63 0 126.5 10t125.5 30t120.5 49.5t110.5 69.5 l93 -133q-78 -62 -153.5 -100t-148.5 -59t-142.5 -28t-135.5 -7zM1006 1725l-147 -147l-148 148l147 147z"/>
    <glyph glyph-name="uniFECF" unicode="غ" horiz-adv-x="1089" arabic-form="initial" d="M875 634q-43 35 -91 62q-42 23 -93.5 43t-107.5 20q-63 0 -110.5 -21.5t-80 -57t-48.5 -82t-16 -95.5q0 -67 29.5 -122.5t79 -94t114.5 -58t136 -14.5q48 3 92.5 8.5t82 11t66 11t43.5 8.5l19 -152q-56 -14 -126.5 -28.5t-163.5 -25.5t-212 -18t-270 -7l-218 -2 q-33 0 -56.5 22.5t-23.5 55.5t23.5 55.5t56.5 22.5l335 4q-90 82 -126.5 160.5t-36.5 162.5t31 158.5t86 131t130 89.5t164 33q76 0 141 -20t115 -47t84 -54t49 -41zM650 1331l-147 -147l-148 148l147 147z"/>
    <glyph glyph-name="uniFED0" unicode="غ" horiz-adv-x="1144" arabic-form="medial" d="M1138 176q32 0 55.5 -23.5t23.5 -56.5q0 -32 -23.5 -54.5t-55.5 -22.5q-157 0 -293.5 30t-249.5 96q-65 -31 -140 -54.5t-153.5 -39.5t-157.5 -24t-151 -8q-32 0 -55.5 22.5t-23.5 54.5q0 33 23.5 56.5t55.5 23.5q52 0 112.5 5.5t121 15t117.5 23.5t101 32 q-75 69 -138 140.5t-125 145.5l-79 93l10 123q48 42 101 70.5t105 47t100.5 28.5t89.5 15q23 2 46 3.5t43 1.5q75 0 146 -13.5t131 -38.5q48 -22 78.5 -47.5t47.5 -51t23.5 -48.5t6.5 -39q5 -44 -19 -102.5t-66.5 -119.5t-97 -118.5t-109.5 -99.5q86 -33 190.5 -49.5 t208.5 -16.5zM597 331q29 15 61 42t62.5 60t58 69.5t48.5 70.5t33.5 63t12.5 48q-60 39 -133.5 59t-151.5 20q-75 0 -156 -21.5t-159 -66.5q46 -55 87 -103.5t80 -91t77.5 -79.5t79.5 -70zM745 1318l-147 -147l-148 148l147 147z"/>
    <glyph glyph-name="uniFECE" unicode="غ" horiz-adv-x="1351" arabic-form="final" d="M659 -607q72 -9 147.5 -8.5t151 13t147.5 38.5t137 67q23 -37 41.5 -69t39.5 -67q-87 -54 -188.5 -89t-209.5 -47.5t-216 -1.5t-208 48t-186 101t-148 158q-31 52 -45.5 118t-13.5 135t16 135.5t44 118.5h-1q30 54 75.5 103t101 91t118.5 77t127 61q-90 81 -156 150 t-125 133q-3 27 -5.5 55t-4.5 54q31 45 75 78t91.5 56.5t92.5 38.5t80 23l-1 -1q54 12 106.5 18t102.5 6q54 0 103.5 -7t91.5 -21q99 -30 150.5 -89.5t48.5 -140.5q-2 -80 -41.5 -151t-106.5 -127q-37 -29 -87.5 -59t-107.5 -56q113 -69 226.5 -114t225.5 -45 q32 -1 54.5 -24t22.5 -55q0 -33 -22.5 -55t-54.5 -23q-81 0 -159 18t-155.5 50t-154 77t-154.5 99q-81 -32 -163 -74t-148 -98.5t-108 -129.5t-42 -167q0 -53 19 -102t50.5 -91.5t72.5 -78t85 -62.5t87.5 -44t80.5 -23zM466 719q36 -38 69.5 -72.5t67.5 -68t69.5 -66.5 t76.5 -67q80 33 141.5 64.5t103.5 65.5t63.5 72t23.5 84q0 15 -8 27t-20.5 22t-27.5 17t-30 12q-34 11 -71.5 15.5t-77.5 4.5q-48 0 -99.5 -8t-101.5 -22.5t-96 -34.5t-83 -45zM900 1341l-147 -147l-148 148l147 147z"/>
    <glyph glyph-name="uniFB90" unicode="ک" horiz-adv-x="936" arabic-form="initial" d="M-100 97q0 34 24.5 56.5t63.5 22.5h56h49q62 0 129 2t128.5 13t112.5 35.5t81 69.5q43 65 43 149q0 47 -15 104q-7 28 -29.5 66.5t-55.5 83t-76 94t-92 99.5t-102.5 99t-108.5 94q5 48 10.5 92t10.5 90q201 86 396 169.5t396 169.5q16 -38 32 -73.5t31 -71.5l-728 -306 q57 -48 121.5 -105.5t122.5 -122.5q67 -74 112.5 -142.5t73.5 -131t40 -119t12 -105.5q0 -64 -16.5 -117.5t-40.5 -97.5h1q-85 -151 -288 -188q-20 -4 -41 -5.5t-42 -1.5l-323 1q-38 0 -63 22.5t-25 54.5z"/>
    <glyph glyph-name="uniFB91" unicode="ک" horiz-adv-x="1169" arabic-form="medial" d="M-78 98q0 32 23.5 55t55.5 23h9h330q43 0 85.5 18t78 47.5t59.5 67t29 76.5q3 57 -17 121t-55.5 128.5t-83 128.5t-99 121.5t-104 106t-98.5 84.5q5 51 11.5 100t12.5 99l854 368q16 -38 32 -73.5t31 -71.5l-807 -339q94 -77 161.5 -150t118 -143.5t89 -139.5t75.5 -138 q25 -47 50.5 -94.5t54.5 -95.5q31 -51 65 -91t75 -68.5t89.5 -44t107.5 -17.5h43q33 0 55.5 -23t22.5 -55q0 -33 -22.5 -55.5t-55.5 -22.5h-8q-70 0 -123 8.5t-104 25.5h1q-68 25 -131 80.5t-115 121.5q-24 -44 -47.5 -77t-49.5 -57h1q-63 -56 -140 -77t-156 -25h1h-326 q-32 0 -55.5 22.5t-23.5 55.5z"/>
    <glyph glyph-name="uni0641" unicode="ف" horiz-adv-x="1953" arabic-form="isolated" d="M1699 999q35 -38 65 -90t52.5 -113.5t35.5 -130.5t13 -141q0 -41 -3 -83.5t-17 -84.5q-26 -76 -73.5 -130t-112.5 -91.5t-145 -60t-170 -34t-188.5 -15.5t-200.5 -4q-595 0 -767 294q-35 60 -49.5 121.5t-14.5 121.5q0 55 6.5 100t16.5 80.5t20.5 62t19.5 44.5 q35 -19 69.5 -38t69.5 -38q-14 -33 -29 -83t-15 -127q0 -41 10.5 -84t32.5 -81q63 -102 213.5 -158t386.5 -65q22 -1 43 -1h41q124 0 236 14.5t203.5 42.5t157.5 70t97 97q-77 -17 -148 -16.5t-133 15t-113 42.5t-87 67q-23 26 -40.5 70t-17.5 109q0 45 9.5 94.5t28 97.5 t45.5 91.5t61.5 76t76 52t89.5 19.5q123 0 225 -112v-1zM1709 572q-10 52 -24.5 114t-40 118t-65.5 98t-101 53q-22 4 -52 -18.5t-57 -60t-45.5 -85t-18.5 -93.5q0 -28 10 -53t26 -46q27 -35 73.5 -51t99 -19.5t105.5 2.5t93 16zM1630 1465l-147 -147l-148 148l147 147z"/>
    <glyph glyph-name="uniFED3" unicode="ف" horiz-adv-x="903" arabic-form="initial" d="M428 947q-17 0 -43 -13.5t-52.5 -41t-48.5 -69t-31 -96.5v1q-3 -16 -4 -33.5t1.5 -35t8 -33t16.5 -27.5h-1q11 -14 31.5 -26t46.5 -21.5t55.5 -15.5t58.5 -8q26 -2 50 -2h46q21 0 48.5 0.5t60.5 3.5q-4 54 -15.5 106t-29 98.5t-40.5 85.5t-50 68v-1q-9 10 -21 20.5 t-25.5 19.5t-29.5 14.5t-32 5.5zM-81 98q0 33 23.5 55.5t56.5 22.5q140 0 246.5 9.5t186 32t135 59.5t93.5 91h-154q-51 0 -99.5 8.5t-91.5 25t-78.5 40t-60.5 53.5q-18 15 -30 44.5t-19 65.5t-7.5 74t4.5 70q13 73 39.5 135t63.5 110q42 55 93.5 83t107.5 28 q123 0 225 -111q39 -43 70 -98t52.5 -117.5t33 -130.5t11.5 -137q0 -99 -30 -174.5t-83.5 -130.5t-128 -91t-164 -57.5t-191.5 -30t-209 -7.5h-17q-32 0 -55 23t-23 55zM544 1470l-147 -147l-148 148l147 147z"/>
    <glyph glyph-name="uniFED4" unicode="ف" horiz-adv-x="1019" arabic-form="medial" d="M508 761q-30 0 -67 -16.5t-69.5 -50t-54 -83.5t-21.5 -116q0 -27 15 -59.5t43.5 -65.5t70 -64t94.5 -55q43 19 75.5 48t55 63.5t34 71.5t11.5 72q0 48 -17 94t-44 82t-60.5 57.5t-65.5 21.5zM-78 98q0 34 22.5 56t55.5 22q36 0 75.5 1.5t80 4t79.5 6.5t74 9 q-39 34 -68 71.5t-48.5 75.5t-29 75.5t-9.5 72.5q0 75 26.5 150t73.5 135.5t112 99t143 41.5q79 -5 141 -39.5t104.5 -88t64.5 -121.5t22 -139q0 -81 -33 -164.5t-102 -158.5q77 -16 160 -23.5t152 -7.5q34 0 56.5 -22t22.5 -56q0 -33 -22.5 -55.5t-56.5 -22.5h-9 q-30 0 -63 1t-67 3.5t-66.5 5.5t-61.5 8q-61 10 -117.5 23t-110.5 31q-47 -18 -105 -31.5t-124 -22.5t-138.5 -13.5t-147.5 -4.5h-8q-33 0 -55.5 22.5t-22.5 55.5zM603 1346l-147 -147l-148 148l147 147z"/>
    <glyph glyph-name="uniFED2" unicode="ف" horiz-adv-x="2101" arabic-form="final" d="M1947 536q0 -47 -7 -87t-20 -76t-32 -68.5t-42 -65.5q-2 -2 -6.5 -7.5t-23.5 -24.5q78 -14 151 -22.5t141 -8.5q32 0 55.5 -22.5t23.5 -55.5q0 -32 -23.5 -55t-55.5 -23q-127 0 -246 18.5t-224 54.5l-67 -22q-48 -18 -116.5 -31.5t-148.5 -23t-168.5 -14t-176.5 -4.5 q-300 1 -497.5 74t-284.5 221q-36 60 -50 122t-14 122q0 55 8 102.5t19.5 86.5t24 68t20.5 46q35 -19 69.5 -38t69.5 -38q-8 -17 -17 -40t-17.5 -52t-14 -63.5t-5.5 -72.5q0 -41 10.5 -83.5t32.5 -80.5q32 -51 82 -90.5t121.5 -67t167.5 -42.5t219 -18q29 -1 55.5 -1.5 t51.5 -0.5q69 0 126.5 3.5t108 9t94.5 13t86 15.5q-41 33 -70.5 72t-49.5 79.5t-29.5 80.5t-9.5 76q0 72 27 146.5t74 134.5t112 98t142 38q63 0 119 -23t99 -70q18 -18 36.5 -44t34 -61.5t25.5 -81t10 -102.5zM1629 263q100 57 144 123.5t44 141.5q0 52 -12 90t-30.5 63.5 t-41 41t-44 23.5t-39.5 10.5t-27 2.5q-31 0 -67.5 -16t-67.5 -49t-51.5 -82.5t-20.5 -115.5q0 -26 14.5 -60t42 -67.5t67 -62t89.5 -43.5zM1731 1335l-147 -147l-148 148l147 147z"/>
    <glyph glyph-name="uniFB6A" unicode="ڤ" horiz-adv-x="1959" arabic-form="isolated" d="M1699 999q35 -38 65 -90t52.5 -113.5t35.5 -130.5t13 -141q0 -41 -3 -83.5t-17 -84.5q-26 -76 -73.5 -130t-112.5 -91.5t-145 -60t-170 -34t-188.5 -15.5t-200.5 -4q-595 0 -767 294q-35 60 -49.5 121.5t-14.5 121.5q0 55 6.5 100t16.5 80.5t20.5 62t19.5 44.5 q35 -19 69.5 -38t69.5 -38q-14 -33 -29 -83t-15 -127q0 -41 10.5 -84t32.5 -81q63 -102 213.5 -158t386.5 -65q22 -1 43 -1h41q124 0 236 14.5t203.5 42.5t157.5 70t97 97q-77 -17 -148 -16.5t-133 15t-113 42.5t-87 67q-23 26 -40.5 70t-17.5 109q0 45 9.5 94.5t28 97.5 t45.5 91.5t61.5 76t76 52t89.5 19.5q123 0 225 -112v-1zM1709 572q-10 52 -24.5 114t-40 118t-65.5 98t-101 53q-22 4 -52 -18.5t-57 -60t-45.5 -85t-18.5 -93.5q0 -28 10 -53t26 -46q27 -35 73.5 -51t99 -19.5t105.5 2.5t93 16zM1499 1487l146 146l148 -148l-146 -146z M1093 1488l146 147l148 -148l-146 -147zM1316 1778l132 132l133 -133l-132 -132z"/>
    <glyph glyph-name="uniFB6C" unicode="ڤ" horiz-adv-x="896" arabic-form="initial" d="M428 947q-17 0 -43 -13.5t-52.5 -41t-48.5 -69t-31 -96.5v1q-3 -16 -4 -33.5t1.5 -35t8 -33t16.5 -27.5h-1q11 -14 31.5 -26t46.5 -21.5t55.5 -15.5t58.5 -8q26 -2 50 -2h46q21 0 48.5 0.5t60.5 3.5q-4 54 -15.5 106t-29 98.5t-40.5 85.5t-50 68v-1q-9 10 -21 20.5 t-25.5 19.5t-29.5 14.5t-32 5.5zM-81 98q0 33 23.5 55.5t56.5 22.5q140 0 246.5 9.5t186 32t135 59.5t93.5 91h-154q-51 0 -99.5 8.5t-91.5 25t-78.5 40t-60.5 53.5q-18 15 -30 44.5t-19 65.5t-7.5 74t4.5 70q13 73 39.5 135t63.5 110q42 55 93.5 83t107.5 28 q123 0 225 -111q39 -43 70 -98t52.5 -117.5t33 -130.5t11.5 -137q0 -99 -30 -174.5t-83.5 -130.5t-128 -91t-164 -57.5t-191.5 -30t-209 -7.5h-17q-32 0 -55 23t-23 55zM401 1388l146 146l148 -148l-146 -146zM-5 1389l146 147l148 -148l-146 -147zM218 1679l132 132 l133 -133l-132 -132z"/>
    <glyph glyph-name="uniFB6D" unicode="ڤ" horiz-adv-x="1009" arabic-form="medial" d="M508 761q-30 0 -67 -16.5t-69.5 -50t-54 -83.5t-21.5 -116q0 -27 15 -59.5t43.5 -65.5t70 -64t94.5 -55q43 19 75.5 48t55 63.5t34 71.5t11.5 72q0 48 -17 94t-44 82t-60.5 57.5t-65.5 21.5zM-78 98q0 34 22.5 56t55.5 22q36 0 75.5 1.5t80 4t79.5 6.5t74 9 q-39 34 -68 71.5t-48.5 75.5t-29 75.5t-9.5 72.5q0 75 26.5 150t73.5 135.5t112 99t143 41.5q79 -5 141 -39.5t104.5 -88t64.5 -121.5t22 -139q0 -81 -33 -164.5t-102 -158.5q77 -16 160 -23.5t152 -7.5q34 0 56.5 -22t22.5 -56q0 -33 -22.5 -55.5t-56.5 -22.5h-9 q-30 0 -63 1t-67 3.5t-66.5 5.5t-61.5 8q-61 10 -117.5 23t-110.5 31q-47 -18 -105 -31.5t-124 -22.5t-138.5 -13.5t-147.5 -4.5h-8q-33 0 -55.5 22.5t-22.5 55.5zM503 1261l146 146l148 -148l-146 -146zM97 1262l146 147l148 -148l-146 -147zM320 1552l132 132l133 -133 l-132 -132z"/>
    <glyph glyph-name="uniFB6B" unicode="ڤ" horiz-adv-x="2106" arabic-form="final" d="M1947 536q0 -47 -7 -87t-20 -76t-32 -68.5t-42 -65.5q-2 -2 -6.5 -7.5t-23.5 -24.5q78 -14 151 -22.5t141 -8.5q32 0 55.5 -22.5t23.5 -55.5q0 -32 -23.5 -55t-55.5 -23q-127 0 -246 18.5t-224 54.5l-67 -22q-48 -18 -116.5 -31.5t-148.5 -23t-168.5 -14t-176.5 -4.5 q-300 1 -497.5 74t-284.5 221q-36 60 -50 122t-14 122q0 55 8 102.5t19.5 86.5t24 68t20.5 46q35 -19 69.5 -38t69.5 -38q-8 -17 -17 -40t-17.5 -52t-14 -63.5t-5.5 -72.5q0 -41 10.5 -83.5t32.5 -80.5q32 -51 82 -90.5t121.5 -67t167.5 -42.5t219 -18q29 -1 55.5 -1.5 t51.5 -0.5q69 0 126.5 3.5t108 9t94.5 13t86 15.5q-41 33 -70.5 72t-49.5 79.5t-29.5 80.5t-9.5 76q0 72 27 146.5t74 134.5t112 98t142 38q63 0 119 -23t99 -70q18 -18 36.5 -44t34 -61.5t25.5 -81t10 -102.5zM1629 263q100 57 144 123.5t44 141.5q0 52 -12 90t-30.5 63.5 t-41 41t-44 23.5t-39.5 10.5t-27 2.5q-31 0 -67.5 -16t-67.5 -49t-51.5 -82.5t-20.5 -115.5q0 -26 14.5 -60t42 -67.5t67 -62t89.5 -43.5zM1641 1274l146 146l148 -148l-146 -146zM1235 1275l146 147l148 -148l-146 -147zM1458 1565l132 132l133 -133l-132 -132z"/>
    <glyph glyph-name="uniFED7" unicode="ق" horiz-adv-x="908" arabic-form="initial" d="M428 947q-17 0 -43 -13.5t-52.5 -41t-48.5 -69t-31 -96.5v1q-3 -16 -4 -33.5t1.5 -35t8 -33t16.5 -27.5h-1q11 -14 31.5 -26t46.5 -21.5t55.5 -15.5t58.5 -8q26 -2 50 -2h46q21 0 48.5 0.5t60.5 3.5q-4 54 -15.5 106t-29 98.5t-40.5 85.5t-50 68v-1q-9 10 -21 20.5 t-25.5 19.5t-29.5 14.5t-32 5.5zM-81 98q0 33 23.5 55.5t56.5 22.5q140 0 246.5 9.5t186 32t135 59.5t93.5 91h-154q-51 0 -99.5 8.5t-91.5 25t-78.5 40t-60.5 53.5q-18 15 -30 44.5t-19 65.5t-7.5 74t4.5 70q13 73 39.5 135t63.5 110q42 55 93.5 83t107.5 28 q123 0 225 -111q39 -43 70 -98t52.5 -117.5t33 -130.5t11.5 -137q0 -99 -30 -174.5t-83.5 -130.5t-128 -91t-164 -57.5t-191.5 -30t-209 -7.5h-17q-32 0 -55 23t-23 55zM373 1481l-146 -146l-148 147l146 147zM728 1479l-145 -146l-148 148l146 146z"/>
    <glyph glyph-name="uniFED8" unicode="ق" horiz-adv-x="1037" arabic-form="medial" d="M522 761q-30 0 -67 -16.5t-69.5 -50t-54 -83.5t-21.5 -116q0 -27 15 -59.5t43.5 -65.5t70 -64t94.5 -55q43 19 75.5 48t55 63.5t34 71.5t11.5 72q0 48 -17 94t-44 82t-60.5 57.5t-65.5 21.5zM-64 98q0 34 22.5 56t55.5 22q36 0 75.5 1.5t80 4t79.5 6.5t74 9 q-39 34 -68 71.5t-48.5 75.5t-29 75.5t-9.5 72.5q0 75 26.5 150t73.5 135.5t112 99t143 41.5q79 -5 141 -39.5t104.5 -88t64.5 -121.5t22 -139q0 -81 -33 -164.5t-102 -158.5q77 -16 160 -23.5t152 -7.5q34 0 56.5 -22t22.5 -56q0 -33 -22.5 -55.5t-56.5 -22.5h-9 q-30 0 -63 1t-67 3.5t-66.5 5.5t-61.5 8q-61 10 -117.5 23t-110.5 31q-47 -18 -105 -31.5t-124 -22.5t-138.5 -13.5t-147.5 -4.5h-8q-33 0 -55.5 22.5t-22.5 55.5zM494 1329l-146 -146l-148 147l146 147zM849 1327l-145 -146l-148 148l146 146z"/>
    <glyph glyph-name="uni0642" unicode="ق" horiz-adv-x="1592" arabic-form="isolated" d="M1063 21q-105 8 -182.5 41t-124.5 94q-65 83 -65 195q0 47 9.5 96t26 95.5t38.5 87.5t47 73q46 60 101.5 90.5t115.5 30.5q68 0 128.5 -31t117.5 -92v1q43 -48 76.5 -109t57 -130t36 -144.5t12.5 -152.5q0 -23 -1 -45.5t-3 -45.5q1 -2 -1 -32t-11.5 -78t-29 -108 t-52.5 -123q-80 -154 -209 -242q-81 -57 -176 -84t-209 -27q-196 0 -338 74q-76 38 -135 91t-98 123q-43 70 -65.5 152.5t-22.5 175.5q0 29 3 61q17 220 142 462q39 -21 71 -38.5t69 -37.5q-63 -121 -94.5 -233t-31.5 -213q0 -69 15.5 -131.5t47.5 -116.5 q61 -101 174.5 -155t259.5 -56q9 -1 19 -1h18q99 0 181 40t144.5 106.5t104.5 153t62 180.5zM1029 665q-29 -3 -54 -20t-46 -43.5t-37.5 -59t-27.5 -66t-17 -65.5t-6 -56q0 -64 29 -99v1q17 -22 43.5 -36.5t55 -23.5t56 -13t47.5 -6q60 -3 112 -3q28 0 62.5 1t54.5 3 q-3 70 -16 133t-32.5 115.5t-44 95t-50.5 72.5q-12 12 -26 24.5t-30.5 22.5t-34.5 16.5t-38 6.5zM971 1166l-146 -146l-148 147l146 147zM1326 1164l-145 -146l-148 148l146 146z"/>
    <glyph glyph-name="uniFED6" unicode="ق" horiz-adv-x="1565" arabic-form="final" d="M1022 668q-45 0 -94 -61l1 1q-31 -38 -56 -90t-36 -113q-2 -14 -3 -26.5t-1 -25.5q0 -30 7 -55.5t22 -43.5q17 -21 43.5 -34.5t55 -21.5t56 -12t46.5 -6q48 -2 91 -3t78 -1h62q-3 71 -16 134.5t-32.5 117t-44 96.5t-51.5 74q-11 12 -24.5 24t-30 22.5t-35 17t-38.5 6.5z M1232 17q-38 0 -82.5 1.5t-95.5 4.5q-102 8 -180 43t-126 92q-29 40 -46.5 90.5t-17.5 105.5q0 35 8 81q13 80 41.5 148.5t70.5 120.5q96 122 218 122q134 0 245 -122q42 -46 75 -104.5t56 -126t36.5 -142.5t16.5 -153q20 -1 54.5 -1.5t65.5 -0.5q32 0 55.5 -22.5 t23.5 -55.5q0 -32 -23.5 -55t-55.5 -23h-9h-122q-5 -27 -12 -60.5t-18 -70.5t-25.5 -75.5t-33.5 -75.5q-80 -153 -208 -244h1q-162 -111 -387 -111q-96 0 -180 18.5t-159 56.5q-76 38 -133.5 91t-99.5 122q-42 71 -64 154.5t-22 177.5q0 13 0.5 28.5t1.5 29.5q10 104 46 224 t96 238l140 -74q-63 -122 -94.5 -234.5t-31.5 -212.5q0 -142 63 -248q63 -103 174 -157.5t263 -54.5q154 0 267.5 69t183.5 194q27 50 45 107.5t28 104.5h-49zM979 1135l-146 -146l-148 147l146 147zM1334 1133l-145 -146l-148 148l146 146z"/>
    <glyph glyph-name="uniFEE7" unicode="ن" horiz-adv-x="706" arabic-form="initial" d="M-85 98q0 33 23 55.5t55 22.5h103q11 0 22.5 -0.5t22.5 -0.5q48 0 92.5 5t82 19t66.5 40t48 67v-1q16 33 16 88q0 94 -44 235q-8 25 -19.5 54t-22.5 56.5t-21.5 50.5t-16.5 37l142 71q6 -14 16 -36t22 -51t24.5 -63t24.5 -71q26 -81 39 -151t13 -130q0 -88 -28 -153 q-35 -73 -95.5 -125.5t-144.5 -75.5q-52 -15 -101.5 -18t-94.5 -3h-146q-32 0 -55 22.5t-23 55.5zM477 1248l-147 -147l-148 148l147 147z"/>
    <glyph glyph-name="uniFEE8" unicode="ن" horiz-adv-x="705" arabic-form="medial" d="M-74 98q0 32 22.5 55t55.5 23h17q178 0 262 63.5t84 192.5q0 27 -2.5 52.5t-7.5 53t-12 58.5t-17 68q42 11 75.5 21.5t73.5 21.5q23 -86 35.5 -156.5t14.5 -134.5q2 -57 8.5 -101.5t25 -75t52.5 -47t91 -16.5q32 0 55.5 -23t23.5 -55q0 -33 -23 -55.5t-55 -22.5 q-48 0 -87.5 10t-73 27.5t-61 42t-50.5 54.5q-69 -67 -169.5 -100.5t-242.5 -33.5h-17q-33 0 -55.5 22.5t-22.5 55.5zM541 1126l-147 -147l-148 148l147 147z"/>
    <glyph glyph-name="uni0646" unicode="ن" horiz-adv-x="1592" arabic-form="isolated" d="M767 -668q-149 3 -267.5 45t-201.5 120t-127 191.5t-44 259.5q0 77 13.5 156.5t36 154.5t52 142t61.5 120l128 -94q-18 -28 -41 -79t-43 -116t-34 -140t-14 -150q0 -46 7.5 -97t27.5 -100t54.5 -94t88.5 -79.5t129 -56t177 -24.5q137 -4 243 31.5t178 103t109.5 163.5 t37.5 215q0 88 -17.5 169t-42 149t-50.5 119t-43 78l139 89q9 -14 25 -43.5t35.5 -71.5t39.5 -95t36 -115t26.5 -131t10.5 -143q0 -159 -54 -286.5t-151 -216t-231 -134.5t-294 -40zM966 641l-147 -147l-148 148l147 147z"/>
    <glyph glyph-name="uniFEE6" unicode="ن" horiz-adv-x="1714" arabic-form="final" d="M1707 20q-129 0 -261 78q0 -6 0.5 -18t1 -24.5t1 -24.5t0.5 -18q0 -63 -9 -128.5t-29 -130.5q-40 -110 -111 -189t-161.5 -131t-194.5 -76.5t-210 -24.5q-273 0 -435 123.5t-210 375.5v-1q-15 89 -7 183t31 185t57.5 173.5t73.5 148.5q36 -26 64.5 -48t62.5 -46 q-15 -24 -32.5 -63t-34 -87t-31 -102t-24 -110t-11.5 -110t7 -102v2q-3 -34 9.5 -74.5t40 -81t68.5 -78.5t95.5 -67t122 -46.5t146.5 -17.5q104 0 192 22.5t156 63t115 98t70 128.5q17 52 23.5 103t6.5 102q0 61 -9 120t-23.5 113t-32.5 102t-35 88q-20 41 -29 61t-17 34 l133 84q3 -4 16.5 -30.5t42.5 -86.5q57 -108 108 -171t97 -95t87 -41t79 -9q33 0 56 -22.5t23 -55.5q0 -32 -23 -55t-56 -23zM917 574l-147 -147l-148 148l147 147z"/>
    <glyph glyph-name="uni06C0" unicode="ۀ" horiz-adv-x="983" arabic-form="isolated" d="M485 16q-5 0 -23.5 1t-47 5.5t-63 13.5t-70.5 26q-89 42 -135.5 113t-46.5 168q0 85 40 177t118 187q31 37 67 72.5t65 62.5q-29 25 -44 39t-21.5 21t-7.5 8t-2 0l107 114q13 -12 36.5 -33t52.5 -49t61.5 -60.5t63.5 -66.5q117 -134 177.5 -254t60.5 -218q0 -97 -43 -168 t-125 -112q-31 -15 -62.5 -24t-60.5 -14.5t-54 -7t-43 -1.5zM473 719q-30 -26 -70 -68.5t-76 -93t-61 -106t-25 -107.5q0 -34 23.5 -72t84.5 -67h-1q21 -10 42 -16t39.5 -9t33 -4t22.5 -1q10 0 27 0.5t37.5 3.5t43 8.5t42.5 15.5q43 23 69 53.5t26 81.5q0 34 -16.5 76.5 t-46 91t-70.5 101.5t-90 107l-18 20zM525 1556q-12 3 -27 6q-13 2 -29.5 4.5t-35.5 2.5q-15 0 -30.5 -2.5t-31.5 -9.5v2q-32 -14 -51.5 -42.5t-19.5 -61.5q0 -17 8 -36l-1 1q14 -35 49.5 -58.5t78.5 -23.5q11 0 21 1t21 6q26 8 51 21t45 25q23 14 43 29l59 -78 q-39 -29 -98 -62t-144 -80l-227 -126l-48 87l179 100q-41 17 -72.5 49t-48.5 71q-14 34 -14 74q0 31 9.5 60.5t27 55t42 45.5t54.5 32q47 19 98 19q23 0 44 -3t38 -7q19 -4 38 -9z"/>
    <glyph glyph-name="uniFBA5" unicode="ۀ" horiz-adv-x="1090" arabic-form="final" d="M544 160q-249 0 -344 118q-27 33 -37.5 72t-10.5 75q0 32 5 58t13 43q26 54 63 99.5t80 82.5t88.5 66.5t89 52t82 38t67.5 26.5l-15 145l157 34q1 -8 3.5 -35t6.5 -63t8 -76.5t8 -76t7 -62t4 -33.5v1q15 -131 28.5 -214t23.5 -132t17 -70.5t10 -28.5v1q13 -31 30.5 -51 t40.5 -32t52.5 -17t68.5 -5q32 0 55.5 -22.5t23.5 -55.5q0 -32 -23.5 -55t-55.5 -23q-38 0 -88 6t-99 29h1q-75 35 -131 126q-135 -21 -229 -21zM634 720q-25 -11 -59.5 -26t-71 -34.5t-72.5 -43t-64.5 -51t-46 -59.5t-17.5 -67q0 -37 20.5 -61t53.5 -38.5t75 -20t86 -5.5 q46 0 95 5.5t86 12.5q-14 69 -28.5 170t-30.5 228zM674 1548q-12 3 -27 6q-13 2 -29.5 4.5t-35.5 2.5q-15 0 -30.5 -2.5t-31.5 -9.5v2q-32 -14 -51.5 -42.5t-19.5 -61.5q0 -17 8 -36l-1 1q14 -35 49.5 -58.5t78.5 -23.5q11 0 21 1t21 6q26 8 51 21t45 25q23 14 43 29l59 -78 q-39 -29 -98 -62t-144 -80l-227 -126l-48 87l179 100q-41 17 -72.5 49t-48.5 71q-14 34 -14 74q0 31 9.5 60.5t27 55t42 45.5t54.5 32q47 19 98 19q23 0 44 -3t38 -7q19 -4 38 -9z"/>
    <glyph glyph-name="uni0624" unicode="ؤ" horiz-adv-x="1043" arabic-form="isolated" d="M518 670q-24 0 -48.5 -14t-47 -37.5t-42 -54.5t-33.5 -65.5t-22 -69.5t-8 -67q0 -33 10.5 -60t25.5 -46v1q32 -31 70.5 -47.5t79 -23.5t81 -7.5t77.5 -0.5q32 0 69 1.5t60 3.5q-3 70 -16 132.5t-32.5 115.5t-44 95.5t-51.5 72.5q-11 12 -25 24.5t-30.5 23t-34.5 17 t-38 6.5zM101 -525q152 33 273.5 92t208.5 132.5t138 156.5t63 164h-77q-58 -3 -126.5 1.5t-133 20t-119 44t-84.5 74.5v-1q-32 41 -46.5 92t-14.5 108q0 46 9.5 93.5t25 93.5t37 87t45.5 74q46 57 103 88.5t115 31.5q133 0 246 -122v1q43 -48 77 -108.5t58 -129.5 t36.5 -144.5t12.5 -153.5q0 -113 -30.5 -215.5t-85 -191t-130 -162t-165.5 -130t-191.5 -95t-207.5 -55.5zM502 1338q-12 3 -27 6q-13 2 -29.5 4.5t-35.5 2.5q-15 0 -30.5 -2.5t-31.5 -9.5v2q-32 -14 -51.5 -42.5t-19.5 -61.5q0 -17 8 -36l-1 1q14 -35 49.5 -58.5 t78.5 -23.5q11 0 21 1t21 6q26 8 51 21t45 25q23 14 43 29l59 -78q-39 -29 -98 -62t-144 -80l-227 -126l-48 87l179 100q-41 17 -72.5 49t-48.5 71q-14 34 -14 74q0 31 9.5 60.5t27 55t42 45.5t54.5 32q47 19 98 19q23 0 44 -3t38 -7q19 -4 38 -9z"/>
    <glyph glyph-name="uniFE86" unicode="ؤ" horiz-adv-x="1058" arabic-form="final" d="M102 -525q152 33 273.5 92t208.5 132.5t138 156.5t63 164h-77q-37 0 -77.5 1t-79.5 4q-207 14 -306 135v-1q-32 41 -46.5 92t-14.5 108q0 46 9.5 93.5t25 93.5t37 87t45.5 74q46 57 103 88.5t115 31.5q133 0 246 -122v1q41 -46 74 -105t56.5 -127.5t37.5 -144t16 -153.5 h94q33 0 56.5 -22.5t23.5 -56.5q0 -32 -23.5 -54.5t-56.5 -22.5h-107q-29 -146 -105 -264.5t-183 -207t-238 -146t-271 -81.5zM519 670q-37 0 -73 -30.5t-64.5 -76t-46.5 -99.5t-18 -102q0 -33 10 -60t25 -46v1q17 -22 44.5 -36t57.5 -22.5t58.5 -12.5t48.5 -5 q56 -3 117.5 -3t112.5 5q-3 70 -16 132.5t-32.5 115.5t-44 95.5t-51.5 72.5q-11 12 -25 24.5t-30.5 23t-34.5 17t-38 6.5zM562 1374q-12 3 -27 6q-13 2 -29.5 4.5t-35.5 2.5q-15 0 -30.5 -2.5t-31.5 -9.5v2q-32 -14 -51.5 -42.5t-19.5 -61.5q0 -17 8 -36l-1 1 q14 -35 49.5 -58.5t78.5 -23.5q11 0 21 1t21 6q26 8 51 21t45 25q23 14 43 29l59 -78q-39 -29 -98 -62t-144 -80l-227 -126l-48 87l179 100q-41 17 -72.5 49t-48.5 71q-14 34 -14 74q0 31 9.5 60.5t27 55t42 45.5t54.5 32q47 19 98 19q23 0 44 -3t38 -7q19 -4 38 -9z"/>
    <glyph glyph-name="uniFBE8" unicode="ى" horiz-adv-x="708" arabic-form="initial" d="M-85 98q0 33 23 55.5t55 22.5h103q11 0 22.5 -0.5t22.5 -0.5q48 0 92.5 5t82 19t66.5 40t48 67v-1q16 33 16 88q0 94 -44 235q-8 25 -19.5 54t-22.5 56.5t-21.5 50.5t-16.5 37l142 71q6 -14 16 -36t22 -51t24.5 -63t24.5 -71q26 -81 39 -151t13 -130q0 -88 -28 -153 q-35 -73 -95.5 -125.5t-144.5 -75.5q-52 -15 -101.5 -18t-94.5 -3h-146q-32 0 -55 22.5t-23 55.5z"/>
    <glyph glyph-name="uniFBE9" unicode="ى" horiz-adv-x="705" arabic-form="medial" d="M-74 98q0 32 22.5 55t55.5 23h17q178 0 262 63.5t84 192.5q0 27 -2.5 52.5t-7.5 53t-12 58.5t-17 68q42 11 75.5 21.5t73.5 21.5q23 -86 35.5 -156.5t14.5 -134.5q2 -57 8.5 -101.5t25 -75t52.5 -47t91 -16.5q32 0 55.5 -23t23.5 -55q0 -33 -23 -55.5t-55 -22.5 q-48 0 -87.5 10t-73 27.5t-61 42t-50.5 54.5q-69 -67 -169.5 -100.5t-242.5 -33.5h-17q-33 0 -55.5 22.5t-22.5 55.5z"/>
    <glyph glyph-name="uniFEF3" unicode="ي" horiz-adv-x="804" arabic-form="initial" d="M336 -346l-146 -146l-148 147l146 147zM691 -348l-145 -146l-148 148l146 146zM-129 98q0 33 23 55.5t55 22.5h111q56 0 123.5 2.5t130.5 15t113.5 39t71.5 73.5v-1q16 33 16 88q0 47 -14 106t-36 129q-8 25 -19.5 54t-22.5 56.5t-21.5 50.5t-16.5 37l142 71 q6 -14 16 -36t22 -51t24.5 -63t24.5 -71q26 -81 39 -151t13 -130q0 -88 -28 -153q-35 -73 -95.5 -125.5t-144.5 -75.5q-26 -8 -67 -12t-84.5 -6t-82.5 -2.5t-61 -0.5h-154q-32 0 -55 22.5t-23 55.5z"/>
    <glyph glyph-name="uniFEF4" unicode="ي" horiz-adv-x="854" arabic-form="medial" d="M-81 98q0 33 22.5 55.5t55.5 22.5h76q88 0 169 9t142.5 35t96.5 74.5t32 127.5q-1 27 -3 51.5t-6.5 51t-11 56.5t-16.5 68q42 11 75.5 21.5t73.5 21.5q12 -43 19 -79t11.5 -69.5t8 -67t8.5 -72.5q5 -42 12.5 -82.5t26 -73t52.5 -52.5t92 -20q33 0 56.5 -22.5t23.5 -55.5 t-23 -55.5t-55 -22.5q-48 0 -88 10.5t-73.5 29t-61.5 43.5t-50 55q-39 -38 -97 -64t-126.5 -42.5t-142.5 -24t-145 -7.5h-76q-33 0 -55.5 22.5t-22.5 55.5zM311 -380l-146 -146l-148 147l146 147zM666 -382l-145 -146l-148 148l146 146z"/>
    <glyph glyph-name="uni064A" unicode="ي" horiz-adv-x="1781" arabic-form="isolated" d="M1375 812q28 6 54 8.5t50 2.5q37 0 70.5 -4.5t61.5 -11t50 -14t36 -12.5q-10 -21 -19 -39t-17 -35t-16.5 -34.5t-18.5 -38.5q-21 8 -59 16.5t-84 8.5q-18 0 -37 -1.5t-37 -5.5h2q-40 -4 -82 -23t-82.5 -49.5t-76.5 -69.5t-63.5 -83t-43.5 -90t-16 -90q0 -35 10 -66 q11 -32 35.5 -53.5t57.5 -37t72.5 -26.5t80.5 -20q52 -12 105 -28t95 -42.5t68.5 -68.5t26.5 -107q0 -28 -6 -64v1q-17 -94 -84 -172t-179 -134q-108 -55 -245.5 -83.5t-298.5 -28.5q-183 0 -325.5 54t-232.5 152q-63 74 -97.5 171t-34.5 206q0 23 1.5 47.5t4.5 49.5 q12 85 32.5 177.5t43 174t42 144t28.5 88.5q40 -14 78 -28t75 -27q-21 -64 -41 -133t-38 -139.5t-32.5 -140.5t-24.5 -135q-2 -17 -3.5 -37t-1.5 -41q0 -32 5 -66.5t16 -69.5t28.5 -68.5t41.5 -62.5q68 -72 179.5 -111.5t255.5 -39.5q147 0 264 24t200.5 64t130 91t51.5 105 q2 24 -13 41.5t-41 31.5t-60 24t-68 19q-50 13 -106 30t-105.5 44.5t-86 68.5t-48.5 101q-10 50 -10 100q0 102 37.5 198t102.5 175t153 135.5t189 77.5zM773 -993l-146 -146l-148 147l146 147zM1128 -995l-145 -146l-148 148l146 146z"/>
    <glyph glyph-name="uniFEF2" unicode="ي" horiz-adv-x="1687" arabic-form="final" d="M830 -632q-85 0 -176 8.5t-175 33t-154 70t-114 120.5q-93 135 -93 351v23.5t1 24.5q7 133 46 287.5t115 339.5q40 -16 74 -30t71 -29q-72 -181 -110.5 -340.5t-38.5 -279.5q0 -162 65 -259q29 -42 67 -70t81 -46.5t88.5 -28t90.5 -13.5t86.5 -4.5t75.5 -0.5q30 0 85 5 t119.5 17t131 32t120.5 49t88.5 69t34.5 93q0 14 -11.5 33.5t-37.5 41t-68 45t-102 45.5q-36 12 -70.5 22.5t-65.5 18.5t-56.5 14t-41.5 9h-3l11 158l752 -1q32 0 55.5 -22.5t23.5 -55.5t-23.5 -55.5t-55.5 -22.5h-295q45 -37 73 -70.5t44.5 -62.5t22 -53.5t5.5 -43.5 q-1 -81 -38 -144t-97 -110t-137.5 -79t-158.5 -52t-160.5 -28.5t-144.5 -8.5zM754 -929l-146 -146l-148 147l146 147zM1109 -931l-145 -146l-148 148l146 146z"/>
    <glyph glyph-name="uni06CC" unicode="ی" horiz-adv-x="1759" arabic-form="isolated" d="M1375 812q28 6 54 8.5t50 2.5q37 0 70.5 -4.5t61.5 -11t50 -14t36 -12.5q-10 -21 -19 -39t-17 -35t-16.5 -34.5t-18.5 -38.5q-21 8 -59 16.5t-84 8.5q-18 0 -37 -1.5t-37 -5.5h2q-40 -4 -82 -23t-82.5 -49.5t-76.5 -69.5t-63.5 -83t-43.5 -90t-16 -90q0 -35 10 -66 q11 -32 35.5 -53.5t57.5 -37t72.5 -26.5t80.5 -20q52 -12 105 -28t95 -42.5t68.5 -68.5t26.5 -107q0 -28 -6 -64v1q-17 -94 -84 -172t-179 -134q-108 -55 -245.5 -83.5t-298.5 -28.5q-183 0 -325.5 54t-232.5 152q-63 74 -97.5 171t-34.5 206q0 23 1.5 47.5t4.5 49.5 q12 85 32.5 177.5t43 174t42 144t28.5 88.5q40 -14 78 -28t75 -27q-21 -64 -41 -133t-38 -139.5t-32.5 -140.5t-24.5 -135q-2 -17 -3.5 -37t-1.5 -41q0 -32 5 -66.5t16 -69.5t28.5 -68.5t41.5 -62.5q68 -72 179.5 -111.5t255.5 -39.5q147 0 264 24t200.5 64t130 91t51.5 105 q2 24 -13 41.5t-41 31.5t-60 24t-68 19q-50 13 -106 30t-105.5 44.5t-86 68.5t-48.5 101q-10 50 -10 100q0 102 37.5 198t102.5 175t153 135.5t189 77.5z"/>
    <glyph glyph-name="uniFBFE" unicode="ی" horiz-adv-x="799" arabic-form="initial" d="M341 -345l-146 -146l-148 147l146 147zM696 -347l-145 -146l-148 148l146 146zM-129 98q0 33 23 55.5t55 22.5h111q56 0 123.5 2.5t130.5 15t113.5 39t71.5 73.5v-1q16 33 16 88q0 47 -14 106t-36 129q-8 25 -19.5 54t-22.5 56.5t-21.5 50.5t-16.5 37l142 71 q6 -14 16 -36t22 -51t24.5 -63t24.5 -71q26 -81 39 -151t13 -130q0 -88 -28 -153q-35 -73 -95.5 -125.5t-144.5 -75.5q-26 -8 -67 -12t-84.5 -6t-82.5 -2.5t-61 -0.5h-154q-32 0 -55 22.5t-23 55.5z"/>
    <glyph glyph-name="uniFBFF" unicode="ی" horiz-adv-x="860" arabic-form="medial" d="M-81 98q0 33 22.5 55.5t55.5 22.5h76q88 0 169 9t142.5 35t96.5 74.5t32 127.5q-1 27 -3 51.5t-6.5 51t-11 56.5t-16.5 68q42 11 75.5 21.5t73.5 21.5q12 -43 19 -79t11.5 -69.5t8 -67t8.5 -72.5q5 -42 12.5 -82.5t26 -73t52.5 -52.5t92 -20q33 0 56.5 -22.5t23.5 -55.5 t-23 -55.5t-55 -22.5q-48 0 -88 10.5t-73.5 29t-61.5 43.5t-50 55q-39 -38 -97 -64t-126.5 -42.5t-142.5 -24t-145 -7.5h-76q-33 0 -55.5 22.5t-22.5 55.5zM319 -380l-146 -146l-148 147l146 147zM674 -382l-145 -146l-148 148l146 146z"/>
    <glyph glyph-name="uniFBFD" unicode="ی" horiz-adv-x="1686" arabic-form="final" d="M830 -632q-85 0 -176 8.5t-175 33t-154 70t-114 120.5q-93 135 -93 351v23.5t1 24.5q7 133 46 287.5t115 339.5q40 -16 74 -30t71 -29q-72 -181 -110.5 -340.5t-38.5 -279.5q0 -162 65 -259q29 -42 67 -70t81 -46.5t88.5 -28t90.5 -13.5t86.5 -4.5t75.5 -0.5q30 0 85 5 t119.5 17t131 32t120.5 49t88.5 69t34.5 93q0 14 -11.5 33.5t-37.5 41t-68 45t-102 45.5q-36 12 -70.5 22.5t-65.5 18.5t-56.5 14t-41.5 9h-3l11 158l752 -1q32 0 55.5 -22.5t23.5 -55.5t-23.5 -55.5t-55.5 -22.5h-295q45 -37 73 -70.5t44.5 -62.5t22 -53.5t5.5 -43.5 q-1 -81 -38 -144t-97 -110t-137.5 -79t-158.5 -52t-160.5 -28.5t-144.5 -8.5z"/>
    <glyph glyph-name="uni06D3" unicode="ۓ" horiz-adv-x="2024" arabic-form="isolated" d="M1045 -104q-89 0 -185.5 -1t-191.5 4t-184 20t-162 48q-59 26 -99.5 62t-60.5 75q-8 15 -13 34.5t-5 42.5t8.5 44t25.5 52q26 47 77.5 82t117 60t138 42t139.5 27.5t122 15.5t86 8l-36 -147q-20 -1 -49 -5q-26 -3 -64.5 -8.5t-92.5 -13.5t-106.5 -22t-96 -31t-74.5 -37 t-43 -40q-10 -15 -10 -24t2 -14q7 -21 32.5 -38.5t65.5 -32t93.5 -26t117.5 -19.5q14 -2 47.5 -3t76 -2t90 -1.5t91.5 -0.5h79h53q79 0 171 5.5t186 14t184.5 18.5t167 20t134 18t84.5 12l-23 -87q-4 -14 -9 -34.5t-8 -35.5l-52.5 -7.5t-116.5 -15.5t-160.5 -19.5 t-184.5 -19t-189 -14.5t-173 -6zM661 1022q-12 3 -27 6q-13 2 -29.5 4.5t-35.5 2.5q-15 0 -30.5 -2.5t-31.5 -9.5v2q-32 -14 -51.5 -42.5t-19.5 -61.5q0 -17 8 -36l-1 1q14 -35 49.5 -58.5t78.5 -23.5q11 0 21 1t21 6q26 8 51 21t45 25q23 14 43 29l59 -78q-39 -29 -98 -62 t-144 -80l-227 -126l-48 87l179 100q-41 17 -72.5 49t-48.5 71q-14 34 -14 74q0 31 9.5 60.5t27 55t42 45.5t54.5 32q47 19 98 19q23 0 44 -3t38 -7q19 -4 38 -9z"/>
    <glyph glyph-name="uniFBB1" unicode="ۓ" horiz-adv-x="1461" arabic-form="final" d="M770 -452q-69 0 -141.5 2.5t-145 10.5t-142.5 24.5t-135 43.5q-59 26 -102.5 61.5t-63.5 75.5q-8 15 -13 35t-5 43q0 24 7.5 52t27.5 59q38 61 108.5 103.5t163.5 68.5t202.5 37.5t225.5 11.5h704q32 0 55 -23t23 -55t-23 -55t-55 -23h-5h-699q-138 0 -238.5 -14.5 t-169 -36.5t-108.5 -48.5t-58 -50.5l1 1q-9 -14 -10.5 -22.5t0.5 -11.5q26 -37 84 -62t137.5 -40.5t176 -22t198.5 -6.5q49 0 107 0.5t116.5 1t115.5 1.5t105 2.5t83.5 2.5t52.5 3l43 -150q-8 -1 -43.5 -3t-87.5 -4t-116.5 -4t-130.5 -4t-130 -3t-115 -1zM529 716 q-12 3 -27 6q-13 2 -29.5 4.5t-35.5 2.5q-15 0 -30.5 -2.5t-31.5 -9.5v2q-32 -14 -51.5 -42.5t-19.5 -61.5q0 -17 8 -36l-1 1q14 -35 49.5 -58.5t78.5 -23.5q11 0 21 1t21 6q26 8 51 21t45 25q23 14 43 29l59 -78q-39 -29 -98 -62t-144 -80l-227 -126l-48 87l179 100 q-41 17 -72.5 49t-48.5 71q-14 34 -14 74q0 31 9.5 60.5t27 55t42 45.5t54.5 32q47 19 98 19q23 0 44 -3t38 -7q19 -4 38 -9z"/>
    <glyph glyph-name="uni0626" unicode="ئ" horiz-adv-x="1723" arabic-form="isolated" d="M1375 812q28 6 54 8.5t50 2.5q37 0 70.5 -4.5t61.5 -11t50 -14t36 -12.5q-10 -21 -19 -39t-17 -35t-16.5 -34.5t-18.5 -38.5q-21 8 -59 16.5t-84 8.5q-18 0 -37 -1.5t-37 -5.5h2q-40 -4 -82 -23t-82.5 -49.5t-76.5 -69.5t-63.5 -83t-43.5 -90t-16 -90q0 -35 10 -66 q11 -32 35.5 -53.5t57.5 -37t72.5 -26.5t80.5 -20q52 -12 105 -28t95 -42.5t68.5 -68.5t26.5 -107q0 -28 -6 -64v1q-17 -94 -84 -172t-179 -134q-108 -55 -245.5 -83.5t-298.5 -28.5q-183 0 -325.5 54t-232.5 152q-63 74 -97.5 171t-34.5 206q0 23 1.5 47.5t4.5 49.5 q12 85 32.5 177.5t43 174t42 144t28.5 88.5q40 -14 78 -28t75 -27q-21 -64 -41 -133t-38 -139.5t-32.5 -140.5t-24.5 -135q-2 -17 -3.5 -37t-1.5 -41q0 -32 5 -66.5t16 -69.5t28.5 -68.5t41.5 -62.5q68 -72 179.5 -111.5t255.5 -39.5q147 0 264 24t200.5 64t130 91t51.5 105 q2 24 -13 41.5t-41 31.5t-60 24t-68 19q-50 13 -106 30t-105.5 44.5t-86 68.5t-48.5 101q-10 50 -10 100q0 102 37.5 198t102.5 175t153 135.5t189 77.5zM692 1125q-12 3 -27 6q-13 2 -29.5 4.5t-35.5 2.5q-15 0 -30.5 -2.5t-31.5 -9.5v2q-32 -14 -51.5 -42.5t-19.5 -61.5 q0 -17 8 -36l-1 1q14 -35 49.5 -58.5t78.5 -23.5q11 0 21 1t21 6q26 8 51 21t45 25q23 14 43 29l59 -78q-39 -29 -98 -62t-144 -80l-227 -126l-48 87l179 100q-41 17 -72.5 49t-48.5 71q-14 34 -14 74q0 31 9.5 60.5t27 55t42 45.5t54.5 32q47 19 98 19q23 0 44 -3t38 -7 q19 -4 38 -9z"/>
    <glyph glyph-name="uniFE8B" unicode="ئ" horiz-adv-x="711" arabic-form="initial" d="M-85 98q0 33 23 55.5t55 22.5h103q11 0 22.5 -0.5t22.5 -0.5q48 0 92.5 5t82 19t66.5 40t48 67v-1q16 33 16 88q0 94 -44 235q-8 25 -19.5 54t-22.5 56.5t-21.5 50.5t-16.5 37l142 71q6 -14 16 -36t22 -51t24.5 -63t24.5 -71q26 -81 39 -151t13 -130q0 -88 -28 -153 q-35 -73 -95.5 -125.5t-144.5 -75.5q-52 -15 -101.5 -18t-94.5 -3h-146q-32 0 -55 22.5t-23 55.5zM487 1425q-12 3 -27 6q-13 2 -29.5 4.5t-35.5 2.5q-15 0 -30.5 -2.5t-31.5 -9.5v2q-32 -14 -51.5 -42.5t-19.5 -61.5q0 -17 8 -36l-1 1q14 -35 49.5 -58.5t78.5 -23.5 q11 0 21 1t21 6q26 8 51 21t45 25q23 14 43 29l59 -78q-39 -29 -98 -62t-144 -80l-227 -126l-48 87l179 100q-41 17 -72.5 49t-48.5 71q-14 34 -14 74q0 31 9.5 60.5t27 55t42 45.5t54.5 32q47 19 98 19q23 0 44 -3t38 -7q19 -4 38 -9z"/>
    <glyph glyph-name="uniFE8C" unicode="ئ" horiz-adv-x="715" arabic-form="medial" d="M-74 98q0 32 22.5 55t55.5 23h17q178 0 262 63.5t84 192.5q0 27 -2.5 52.5t-7.5 53t-12 58.5t-17 68q42 11 75.5 21.5t73.5 21.5q23 -86 35.5 -156.5t14.5 -134.5q2 -57 8.5 -101.5t25 -75t52.5 -47t91 -16.5q32 0 55.5 -23t23.5 -55q0 -33 -23 -55.5t-55 -22.5 q-48 0 -87.5 10t-73 27.5t-61 42t-50.5 54.5q-69 -67 -169.5 -100.5t-242.5 -33.5h-17q-33 0 -55.5 22.5t-22.5 55.5zM475 1308q-12 3 -27 6q-13 2 -29.5 4.5t-35.5 2.5q-15 0 -30.5 -2.5t-31.5 -9.5v2q-32 -14 -51.5 -42.5t-19.5 -61.5q0 -17 8 -36l-1 1q14 -35 49.5 -58.5 t78.5 -23.5q11 0 21 1t21 6q26 8 51 21t45 25q23 14 43 29l59 -78q-39 -29 -98 -62t-144 -80l-227 -126l-48 87l179 100q-41 17 -72.5 49t-48.5 71q-14 34 -14 74q0 31 9.5 60.5t27 55t42 45.5t54.5 32q47 19 98 19q23 0 44 -3t38 -7q19 -4 38 -9z"/>
    <glyph glyph-name="uniFE8A" unicode="ئ" horiz-adv-x="1683" arabic-form="final" d="M830 -632q-85 0 -176 8.5t-175 33t-154 70t-114 120.5q-93 135 -93 351v23.5t1 24.5q7 133 46 287.5t115 339.5q40 -16 74 -30t71 -29q-72 -181 -110.5 -340.5t-38.5 -279.5q0 -162 65 -259q29 -42 67 -70t81 -46.5t88.5 -28t90.5 -13.5t86.5 -4.5t75.5 -0.5q30 0 85 5 t119.5 17t131 32t120.5 49t88.5 69t34.5 93q0 14 -11.5 33.5t-37.5 41t-68 45t-102 45.5q-36 12 -70.5 22.5t-65.5 18.5t-56.5 14t-41.5 9h-3l11 158l752 -1q32 0 55.5 -22.5t23.5 -55.5t-23.5 -55.5t-55.5 -22.5h-295q45 -37 73 -70.5t44.5 -62.5t22 -53.5t5.5 -43.5 q-1 -81 -38 -144t-97 -110t-137.5 -79t-158.5 -52t-160.5 -28.5t-144.5 -8.5zM908 606q-12 3 -27 6q-13 2 -29.5 4.5t-35.5 2.5q-15 0 -30.5 -2.5t-31.5 -9.5v2q-32 -14 -51.5 -42.5t-19.5 -61.5q0 -17 8 -36l-1 1q14 -35 49.5 -58.5t78.5 -23.5q11 0 21 1t21 6q26 8 51 21 t45 25q23 14 43 29l59 -78q-39 -29 -98 -62t-144 -80l-227 -126l-48 87l179 100q-41 17 -72.5 49t-48.5 71q-14 34 -14 74q0 31 9.5 60.5t27 55t42 45.5t54.5 32q47 19 98 19q23 0 44 -3t38 -7q19 -4 38 -9z"/>
    <glyph glyph-name="uni06C2" unicode="ۂ" horiz-adv-x="993" d="M495 16q-5 0 -23.5 1t-47 5.5t-63 13.5t-70.5 26q-89 42 -135.5 113t-46.5 168q0 85 40 177t118 187q31 37 67 72.5t65 62.5q-29 25 -44 39t-21.5 21t-7.5 8t-2 0l107 114q13 -12 36.5 -33t52.5 -49t61.5 -60.5t63.5 -66.5q117 -134 177.5 -254t60.5 -218q0 -97 -43 -168 t-125 -112q-31 -15 -62.5 -24t-60.5 -14.5t-54 -7t-43 -1.5zM483 719q-30 -26 -70 -68.5t-76 -93t-61 -106t-25 -107.5q0 -34 23.5 -72t84.5 -67h-1q21 -10 42 -16t39.5 -9t33 -4t22.5 -1q10 0 27 0.5t37.5 3.5t43 8.5t42.5 15.5q43 23 69 53.5t26 81.5q0 34 -16.5 76.5 t-46 91t-70.5 101.5t-90 107l-18 20zM518 1550q-12 3 -27 6q-13 2 -29.5 4.5t-35.5 2.5q-15 0 -30.5 -2.5t-31.5 -9.5v2q-32 -14 -51.5 -42.5t-19.5 -61.5q0 -17 8 -36l-1 1q14 -35 49.5 -58.5t78.5 -23.5q11 0 21 1t21 6q26 8 51 21t45 25q23 14 43 29l59 -78 q-39 -29 -98 -62t-144 -80l-227 -126l-48 87l179 100q-41 17 -72.5 49t-48.5 71q-14 34 -14 74q0 31 9.5 60.5t27 55t42 45.5t54.5 32q47 19 98 19q23 0 44 -3t38 -7q19 -4 38 -9z"/>
    <glyph glyph-name="uniFBA6" unicode="ہ" horiz-adv-x="983" arabic-form="isolated" d="M485 16q-5 0 -23.5 1t-47 5.5t-63 13.5t-70.5 26q-89 42 -135.5 113t-46.5 168q0 85 40 177t118 187q31 37 67 72.5t65 62.5q-29 25 -44 39t-21.5 21t-7.5 8t-2 0l107 114q13 -12 36.5 -33t52.5 -49t61.5 -60.5t63.5 -66.5q117 -134 177.5 -254t60.5 -218q0 -97 -43 -168 t-125 -112q-31 -15 -62.5 -24t-60.5 -14.5t-54 -7t-43 -1.5zM473 719q-30 -26 -70 -68.5t-76 -93t-61 -106t-25 -107.5q0 -34 23.5 -72t84.5 -67h-1q21 -10 42 -16t39.5 -9t33 -4t22.5 -1q10 0 27 0.5t37.5 3.5t43 8.5t42.5 15.5q43 23 69 53.5t26 81.5q0 34 -16.5 76.5 t-46 91t-70.5 101.5t-90 107l-18 20z"/>
    <glyph glyph-name="uni06C3" unicode="ۃ" horiz-adv-x="1020" d="M522 16q-5 0 -23.5 1t-47 5.5t-63 13.5t-70.5 26q-89 42 -135.5 113t-46.5 168q0 85 40 177t118 187q31 37 67 72.5t65 62.5q-29 25 -44 39t-21.5 21t-7.5 8t-2 0l107 114q13 -12 36.5 -33t52.5 -49t61.5 -60.5t63.5 -66.5q117 -134 177.5 -254t60.5 -218q0 -97 -43 -168 t-125 -112q-31 -15 -62.5 -24t-60.5 -14.5t-54 -7t-43 -1.5zM510 719q-30 -26 -70 -68.5t-76 -93t-61 -106t-25 -107.5q0 -34 23.5 -72t84.5 -67h-1q21 -10 42 -16t39.5 -9t33 -4t22.5 -1q10 0 27 0.5t37.5 3.5t43 8.5t42.5 15.5q43 23 69 53.5t26 81.5q0 34 -16.5 76.5 t-46 91t-70.5 101.5t-90 107l-18 20zM411 1370l-146 -146l-148 147l146 147zM766 1368l-145 -146l-148 148l146 146z"/>
    <glyph glyph-name="uniFBAB" unicode="ھ" horiz-adv-x="1169" arabic-form="final" d="M734 721q-17 -13 -41.5 -37.5t-51.5 -59.5q-15 -21 -32 -49.5t-32.5 -63t-29 -75t-21.5 -86.5q-6 -42 -6 -88q0 -15 0.5 -32t3.5 -44l46 7q9 2 19.5 4.5t19.5 4.5q82 23 135 67.5t77 108.5q14 35 19.5 69t5.5 63q0 37 -7 67t-17 52q-14 33 -31.5 56t-31.5 35zM56 14 q0 15 4.5 26t14.5 20t26.5 17t39.5 17l225 90q-2 22 -3 42t-1 37q0 60 11 120.5t28 117.5q16 48 36.5 89.5t42.5 76t43.5 62t39.5 47.5q14 16 34.5 36t44.5 38t50.5 30.5t53.5 13.5q29 1 56.5 -12t50 -32t39 -39t25.5 -31q29 -41 49 -91t31 -101q4 -20 5.5 -39.5t1.5 -37.5 q0 -45 -9 -92.5t-25 -95.5q-22 -57 -55.5 -103.5t-79.5 -81.5q-39 -29 -85 -51.5t-101 -36.5q-12 -4 -36.5 -9t-53.5 -10q29 -71 73 -146.5t104 -156.5q19 112 52 177q55 118 162 195q53 39 107.5 57.5t114.5 18.5q33 0 56 -23t23 -55q0 -33 -23 -55.5t-56 -22.5h-9 q-75 -3 -123 -42q-23 -19 -39 -36t-28.5 -34.5t-22.5 -35t-20 -36.5q-12 -26 -23.5 -63.5t-11.5 -82.5q0 -43 15.5 -90.5t55.5 -96.5l12 -11q-27 -33 -51.5 -61.5t-50.5 -59.5q-180 149 -297 300.5t-169 309.5l-16 44q-61 -21 -131 -44.5t-132 -44.5q-32 1 -53.5 23.5 t-21.5 54.5z"/>
    <glyph glyph-name="uniFBAC" unicode="ھ" horiz-adv-x="1444" arabic-form="initial" d="M-82 99q0 32 24 54.5t58 22.5h9q68 0 120 1.5t94 4.5t76.5 7t66.5 9q-87 85 -129.5 167t-42.5 158q0 53 15.5 111t47.5 111t82.5 95.5t120.5 65.5l-107 41l77 144q48 -18 89 -34t80 -31.5t78.5 -31t83.5 -31.5q91 -40 178 -81.5t161.5 -83.5t131 -84.5t86.5 -83.5 q88 -121 88 -248q0 -93 -49.5 -173.5t-149.5 -134.5l1 1q-27 -16 -65 -27t-80 -18t-84.5 -10t-76.5 -3q-87 0 -169 13t-167 48q-51 -16 -118 -27t-140.5 -18t-150 -10t-148.5 -3h-9q-34 0 -58 23t-24 56zM938 571q0 -45 -13.5 -96.5t-38 -103.5t-59.5 -100.5t-78 -87.5 q45 -9 77.5 -11.5t56.5 -2.5h48q81 0 142.5 18t103 49t62 72t20.5 86q0 40 -23 87.5t-67.5 94.5t-109 91t-148.5 78q21 -51 24.5 -93t2.5 -69v-12zM642 801q-7 2 -13.5 3t-11.5 0q-65 -6 -118 -33.5t-89 -68.5t-52.5 -91.5t-8.5 -103.5q6 -39 24.5 -76t45.5 -70t61.5 -61.5 t72.5 -50.5q56 24 97.5 61.5t68.5 82t40.5 93t13.5 93.5q0 41 -9.5 79t-26.5 68.5t-41 50.5t-53 24h-1z"/>
    <glyph glyph-name="uniFBAD" unicode="ھ" horiz-adv-x="1003" arabic-form="medial" d="M510 725q-28 -3 -56 -27t-53 -61t-46 -85t-36.5 -99t-24.5 -102.5t-9 -96.5q0 -14 1.5 -30.5t3.5 -33.5q15 -2 28.5 -3t18.5 -1q64 0 116 29.5t88.5 76.5t56 105.5t19.5 116.5q0 62 -22 116.5t-71 90.5zM-79 98q0 32 22.5 55t55.5 23h133q-3 58 6.5 131.5t30.5 151.5 t53.5 153.5t75.5 136t96.5 100t117.5 45.5q60 0 106.5 -39.5t79 -101.5t49.5 -136.5t17 -143.5q0 -45 -7 -83t-21 -67q-22 -63 -63 -112t-95 -85t-118.5 -59.5t-134.5 -35.5q13 -33 36 -80.5t54.5 -96.5t70 -93.5t82.5 -70.5q-5 65 10 126.5t45 115.5t73 99t93.5 77 t105.5 50t110 18q33 0 56 -23t23 -55q0 -33 -23 -55.5t-56 -22.5h-9q-62 -3 -116.5 -32.5t-96 -76.5t-65.5 -106t-24 -121q0 -51 17.5 -99t57.5 -92l-104 -125q-101 63 -180 136.5t-139 153t-102 161.5t-68 162l-14 39h-163q-33 0 -55.5 22.5t-22.5 55.5z"/>
    <glyph glyph-name="uniFE70" unicode="ﹰ" arabic-form="isolated" d="M485 1581l-616 -247v90l616 239v-82zM487 1322l-616 -247v90l616 239v-82z"/>
    <glyph glyph-name="uniFE72" unicode="ﹲ" arabic-form="isolated" d="M333 1383q49 92 13 183l-2 3l-1 4q-2 6 -5 11q-6 14 -14 24q-23 30 -57 26q-50 0 -93 -51q-30 -36 -25 -67q6 -33 36 -58q12 -9 29 -19l15 -8l16 -8l10 -5q22 -11 78 -35zM438 1346l-26 -72l-48 17l-1 -1q-16 -15 -34 -29q-36 -28 -84 -53q-35 -18 -82 -38 q-71 -31 -158 -52q-13 -4 -36 -9q-8 -2 -17 -4q-6 -2 -10 -3l-42 61v2l1 2l2 8q4 10 7 18q8 26 9 33q5 20 7 38q2 23 0 42q-4 48 -34 62q-14 6 -30 6q-24 0 -54 -15q-6 -3 -21 -13l-10 -8l-5 -3l-3 -3l-46 56q62 60 140 60q44 0 78 -24q85 -58 48 -232l-1 -4l4 1 q89 28 145 51q83 35 143 78l4 2l-4 2q-14 7 -42 20l-34 16q-18 9 -32 17q-36 21 -57 44q-43 50 -39 112q5 72 66 125q60 52 127 52h8q68 -4 113 -70q41 -59 38 -143q-1 -58 -25 -133l-1 -3z"/>
    <glyph glyph-name="uniFE74" unicode="ﹴ" arabic-form="isolated" d="M505 -168l-616 -247v90l616 239v-82zM507 -427l-616 -247v90l616 239v-82z"/>
    <glyph glyph-name="uniFE76" unicode="ﹶ" arabic-form="isolated" d="M477 1356l-616 -247v90l616 239v-82z"/>
    <glyph glyph-name="uniFE78" unicode="ﹸ" arabic-form="isolated" d="M75 1550q-11 -40 20 -68q12 -12 31 -22l18 -9l17 -9l11 -5l96 -42q26 57 22 118q-3 70 -45 114q-18 19 -46 19q-39 0 -78 -32q-37 -30 -46 -64zM371 1356l-26 -68l-3 1v0l-1 1l-2 1l-3 1q-7 3 -14 5q-21 9 -27 11l-3 -3l-4 -4q-7 -5 -12 -10q-16 -14 -23 -20 q-70 -57 -175 -106q-6 -3 -29 -13q-26 -11 -51 -22q-72 -30 -84 -32h-2l-26 71l3 1q167 48 334 161l-2 1l-14 6l-15 5l-31 13q-35 16 -60 31q-68 40 -90 92q-25 59 13 126q33 59 90 90q42 23 90 23q20 0 41 -5q31 -7 58 -35q10 -10 19 -23q6 -9 12 -19q29 -54 30 -129 q0 -75 -28 -136z"/>
    <glyph glyph-name="uniFE7A" unicode="ﹺ" arabic-form="isolated" d="M501 -215l-616 -247v90l616 239v-82z"/>
    <glyph glyph-name="uniFE7C" unicode="ﹼ" arabic-form="isolated" d="M53 1088q-32 1 -56.5 8t-42 17t-29 22t-18.5 24q-13 20 -17.5 43t-4.5 46q0 43 11.5 81.5t21.5 57.5q18 -9 35 -16t34 -15q-9 -23 -16.5 -52.5t-7.5 -56.5q0 -14 1.5 -26t7.5 -22q9 -16 33 -25t51 -9q19 0 36.5 5.5t29.5 20.5l-1 -1q25 29 32.5 75t7.5 85q0 10 -0.5 16 t-0.5 13q16 3 29 6q12 2 23 5t14 7q10 -72 23.5 -115t29.5 -65.5t31 -29.5t27 -7q47 3 66 31.5t19 68.5q0 23 -5 48.5t-15 50t-22 47t-26 39.5q16 12 32 22t31 20q9 -14 23.5 -39t28 -55t23 -63.5t9.5 -65.5q0 -10 -2 -30t-6 -31q-13 -34 -31.5 -56.5t-40 -36t-45 -19.5 t-44.5 -6q-26 0 -60 13t-67 56q-29 -41 -65 -63.5t-80 -22.5h-7z"/>
    <glyph glyph-name="uniFE7E" unicode="ﹾ" arabic-form="isolated" d="M183 1179q27 0 52 13t44.5 34.5t30.5 50t9 60.5q-1 25 -9.5 53.5t-26 51.5t-42 37.5t-58.5 14.5q-31 0 -56 -15.5t-43.5 -38t-28 -50.5t-9.5 -53q0 -28 11.5 -56t30 -50.5t43.5 -37t52 -14.5zM183 1579q49 0 88.5 -22.5t68.5 -57t45.5 -77.5t18.5 -85q1 -47 -16 -90 t-47 -77.5t-70.5 -55t-87.5 -20.5q-50 -1 -91 20t-70 56t-44.5 79t-15.5 88q0 42 15.5 85t44.5 77.5t70 57t91 22.5z"/>
    <glyph glyph-name="uniFC5E" unicode="ﱞ" arabic-form="isolated" d="M45 1104q-32 1 -56.5 8t-42 17t-29 22t-18.5 24q-13 20 -17.5 43t-4.5 46q0 43 11.5 81.5t21.5 57.5q18 -9 35 -16t34 -15q-9 -23 -16.5 -52.5t-7.5 -56.5q0 -14 1.5 -26t7.5 -22q9 -16 33 -25t51 -9q19 0 36.5 5.5t29.5 20.5l-1 -1q25 29 32.5 75t7.5 85q0 10 -0.5 16 t-0.5 13q16 3 29 6q12 2 23 5t14 7q10 -72 23.5 -115t29.5 -65.5t31 -29.5t27 -7q47 3 66 31.5t19 68.5q0 23 -5 48.5t-15 50t-22 47t-26 39.5q16 12 32 22t31 20q9 -14 23.5 -39t28 -55t23 -63.5t9.5 -65.5q0 -10 -2 -30t-6 -31q-13 -34 -31.5 -56.5t-40 -36t-45 -19.5 t-44.5 -6q-26 0 -60 13t-67 56q-29 -41 -65 -63.5t-80 -22.5h-7zM280 1807q49 92 13 183l-2 3l-1 4q-2 6 -5 11q-6 14 -14 24q-23 30 -57 26q-50 0 -93 -51q-30 -36 -25 -67q6 -33 36 -58q12 -9 29 -19l15 -8l16 -8l10 -5q22 -11 78 -35zM385 1770l-26 -72l-48 17l-1 -1 q-16 -15 -34 -29q-36 -28 -84 -53q-35 -18 -82 -38q-71 -31 -158 -52q-13 -4 -36 -9q-8 -2 -17 -4q-6 -2 -10 -3l-42 61v2l1 2l2 8q4 10 7 18q8 26 9 33q5 20 7 38q2 23 0 42q-4 48 -34 62q-14 6 -30 6q-24 0 -54 -15q-6 -3 -21 -13l-10 -8l-5 -3l-3 -3l-46 56q62 60 140 60 q44 0 78 -24q85 -58 48 -232l-1 -4l4 1q89 28 145 51q83 35 143 78l4 2l-4 2q-14 7 -42 20l-34 16q-18 9 -32 17q-36 21 -57 44q-43 50 -39 112q5 72 66 125q60 52 127 52h8q68 -4 113 -70q41 -59 38 -143q-1 -58 -25 -133l-1 -3z"/>
    <glyph glyph-name="uniFC5F" unicode="ﱟ" arabic-form="isolated" d="M37 1727q-32 1 -56.5 8t-42 17t-29 22t-18.5 24q-13 20 -17.5 43t-4.5 46q0 43 11.5 81.5t21.5 57.5q18 -9 35 -16t34 -15q-9 -23 -16.5 -52.5t-7.5 -56.5q0 -14 1.5 -26t7.5 -22q9 -16 33 -25t51 -9q19 0 36.5 5.5t29.5 20.5l-1 -1q25 29 32.5 75t7.5 85q0 10 -0.5 16 t-0.5 13q16 3 29 6q12 2 23 5t14 7q10 -72 23.5 -115t29.5 -65.5t31 -29.5t27 -7q47 3 66 31.5t19 68.5q0 23 -5 48.5t-15 50t-22 47t-26 39.5q16 12 32 22t31 20q9 -14 23.5 -39t28 -55t23 -63.5t9.5 -65.5q0 -10 -2 -30t-6 -31q-13 -34 -31.5 -56.5t-40 -36t-45 -19.5 t-44.5 -6q-26 0 -60 13t-67 56q-29 -41 -65 -63.5t-80 -22.5h-7zM495 1607l-616 -247v90l616 239v-82zM497 1348l-616 -247v90l616 239v-82z"/>
    <glyph glyph-name="uniFC60" unicode="ﱠ" arabic-form="isolated" d="M39 1091q-32 1 -56.5 8t-42 17t-29 22t-18.5 24q-13 20 -17.5 43t-4.5 46q0 43 11.5 81.5t21.5 57.5q18 -9 35 -16t34 -15q-9 -23 -16.5 -52.5t-7.5 -56.5q0 -14 1.5 -26t7.5 -22q9 -16 33 -25t51 -9q19 0 36.5 5.5t29.5 20.5l-1 -1q25 29 32.5 75t7.5 85q0 10 -0.5 16 t-0.5 13q16 3 29 6q12 2 23 5t14 7q10 -72 23.5 -115t29.5 -65.5t31 -29.5t27 -7q47 3 66 31.5t19 68.5q0 23 -5 48.5t-15 50t-22 47t-26 39.5q16 12 32 22t31 20q9 -14 23.5 -39t28 -55t23 -63.5t9.5 -65.5q0 -10 -2 -30t-6 -31q-13 -34 -31.5 -56.5t-40 -36t-45 -19.5 t-44.5 -6q-26 0 -60 13t-67 56q-29 -41 -65 -63.5t-80 -22.5h-7zM451 1735l-616 -247v90l616 239v-82z"/>
    <glyph glyph-name="uniFC61" unicode="ﱡ" arabic-form="isolated" d="M41 1093q-32 1 -56.5 8t-42 17t-29 22t-18.5 24q-13 20 -17.5 43t-4.5 46q0 43 11.5 81.5t21.5 57.5q18 -9 35 -16t34 -15q-9 -23 -16.5 -52.5t-7.5 -56.5q0 -14 1.5 -26t7.5 -22q9 -16 33 -25t51 -9q19 0 36.5 5.5t29.5 20.5l-1 -1q25 29 32.5 75t7.5 85q0 10 -0.5 16 t-0.5 13q16 3 29 6q12 2 23 5t14 7q10 -72 23.5 -115t29.5 -65.5t31 -29.5t27 -7q47 3 66 31.5t19 68.5q0 23 -5 48.5t-15 50t-22 47t-26 39.5q16 12 32 22t31 20q9 -14 23.5 -39t28 -55t23 -63.5t9.5 -65.5q0 -10 -2 -30t-6 -31q-13 -34 -31.5 -56.5t-40 -36t-45 -19.5 t-44.5 -6q-26 0 -60 13t-67 56q-29 -41 -65 -63.5t-80 -22.5h-7zM82 1965q-11 -40 20 -68q12 -12 31 -22l18 -9l17 -9l11 -5l96 -42q26 57 22 118q-3 70 -45 114q-18 19 -46 19q-39 0 -78 -32q-37 -30 -46 -64zM378 1771l-26 -68l-3 1v0l-1 1l-2 1l-3 1q-7 3 -14 5 q-21 9 -27 11l-3 -3l-4 -4q-7 -5 -12 -10q-16 -14 -23 -20q-70 -57 -175 -106q-6 -3 -29 -13q-26 -11 -51 -22q-72 -30 -84 -32h-2l-26 71l3 1q167 48 334 161l-2 1l-14 6l-15 5l-31 13q-35 16 -60 31q-68 40 -90 92q-25 59 13 126q33 59 90 90q42 23 90 23q20 0 41 -5 q31 -7 58 -35q10 -10 19 -23q6 -9 12 -19q29 -54 30 -129q0 -75 -28 -136z"/>
    <glyph glyph-name="uniFC62" unicode="ﱢ" arabic-form="isolated" d="M32 1446q-32 1 -56.5 8t-42 17t-29 22t-18.5 24q-13 20 -17.5 43t-4.5 46q0 43 11.5 81.5t21.5 57.5q18 -9 35 -16t34 -15q-9 -23 -16.5 -52.5t-7.5 -56.5q0 -14 1.5 -26t7.5 -22q9 -16 33 -25t51 -9q19 0 36.5 5.5t29.5 20.5l-1 -1q25 29 32.5 75t7.5 85q0 10 -0.5 16 t-0.5 13q16 3 29 6q12 2 23 5t14 7q10 -72 23.5 -115t29.5 -65.5t31 -29.5t27 -7q47 3 66 31.5t19 68.5q0 23 -5 48.5t-15 50t-22 47t-26 39.5q16 12 32 22t31 20q9 -14 23.5 -39t28 -55t23 -63.5t9.5 -65.5q0 -10 -2 -30t-6 -31q-13 -34 -31.5 -56.5t-40 -36t-45 -19.5 t-44.5 -6q-26 0 -60 13t-67 56q-29 -41 -65 -63.5t-80 -22.5h-7zM472 1332l-616 -247v90l616 239v-82z"/>
    <glyph glyph-name="uniFC63" unicode="ﱣ" arabic-form="isolated" d="M43 1088q-32 1 -56.5 8t-42 17t-29 22t-18.5 24q-13 20 -17.5 43t-4.5 46q0 43 11.5 81.5t21.5 57.5q18 -9 35 -16t34 -15q-9 -23 -16.5 -52.5t-7.5 -56.5q0 -14 1.5 -26t7.5 -22q9 -16 33 -25t51 -9q19 0 36.5 5.5t29.5 20.5l-1 -1q25 29 32.5 75t7.5 85q0 10 -0.5 16 t-0.5 13q16 3 29 6q12 2 23 5t14 7q10 -72 23.5 -115t29.5 -65.5t31 -29.5t27 -7q47 3 66 31.5t19 68.5q0 23 -5 48.5t-15 50t-22 47t-26 39.5q16 12 32 22t31 20q9 -14 23.5 -39t28 -55t23 -63.5t9.5 -65.5q0 -10 -2 -30t-6 -31q-13 -34 -31.5 -56.5t-40 -36t-45 -19.5 t-44.5 -6q-26 0 -60 13t-67 56q-29 -41 -65 -63.5t-80 -22.5h-7zM145 1525q8 40 12.5 85.5t4.5 87.5q0 22 -1.5 50t-4 57.5t-6 56t-7.5 47.5q18 6 41.5 10.5t39.5 10.5q4 -19 7.5 -46t6 -56t4 -58t1.5 -54q0 -48 -4 -99t-15 -112z"/>
    <glyph glyph-name=".notdef" horiz-adv-x="1229" d="M102 -362v1806h1024v-1806h-1024zM217 -248h795v1577h-795v-1577z"/>
    <glyph glyph-name="NULL"/>
    <glyph glyph-name="nonmarkingreturn" horiz-adv-x="602"/>
    <glyph glyph-name="space" unicode=" " horiz-adv-x="650"/>
    <glyph glyph-name="space" unicode=" " horiz-adv-x="650"/>
    <glyph glyph-name="uni0640" unicode="ـ" horiz-adv-x="907" d="M-91 98q0 16 7 30.5t18 25t26 16.5t32 6h8h908h6q32 0 55.5 -23t23.5 -55q0 -33 -23.5 -55.5t-55.5 -22.5h-6h-917q-16 0 -31 6t-26 16.5t-18 24.5t-7 31z"/>
    <glyph glyph-name="uni066E" unicode="ٮ" horiz-adv-x="1982" d="M994 20q-174 2 -318 23t-250 59q-97 38 -166 93.5t-103 125.5q-40 76 -40 169q0 44 10 92.5t28 96.5q20 51 41 89.5t34 58.5l126 -94q-3 -4 -5 -7.5t-7 -14t-15 -32t-29 -60.5q-13 -35 -20.5 -67t-7.5 -61q0 -26 6 -51.5t16 -46.5q28 -50 89 -89.5t150.5 -67t205.5 -43 t255 -15.5q81 0 178 7t198 25t201.5 49t189.5 80q-6 64 -29.5 133t-53 130t-57.5 108.5t-42 70.5l133 86q13 -21 37.5 -62.5t50.5 -95.5t50.5 -117t39.5 -126q7 -30 11 -56.5t4 -51.5q0 -45 -24.5 -82.5t-80.5 -74.5q-69 -39 -168 -73t-209.5 -58t-222.5 -37.5t-206 -12.5z "/>
    <glyph glyph-name="feh_dotless.isol" horiz-adv-x="1948" d="M1699 999q35 -38 65 -90t52.5 -113.5t35.5 -130.5t13 -141q0 -41 -3 -83.5t-17 -84.5q-26 -76 -73.5 -130t-112.5 -91.5t-145 -60t-170 -34t-188.5 -15.5t-200.5 -4q-595 0 -767 294q-35 60 -49.5 121.5t-14.5 121.5q0 55 6.5 100t16.5 80.5t20.5 62t19.5 44.5 q35 -19 69.5 -38t69.5 -38q-14 -33 -29 -83t-15 -127q0 -41 10.5 -84t32.5 -81q63 -102 213.5 -158t386.5 -65q22 -1 43 -1h41q124 0 236 14.5t203.5 42.5t157.5 70t97 97q-77 -17 -148 -16.5t-133 15t-113 42.5t-87 67q-23 26 -40.5 70t-17.5 109q0 45 9.5 94.5t28 97.5 t45.5 91.5t61.5 76t76 52t89.5 19.5q123 0 225 -112v-1zM1709 572q-10 52 -24.5 114t-40 118t-65.5 98t-101 53q-22 4 -52 -18.5t-57 -60t-45.5 -85t-18.5 -93.5q0 -28 10 -53t26 -46q27 -35 73.5 -51t99 -19.5t105.5 2.5t93 16z"/>
    <glyph glyph-name="uni06A1.fina" horiz-adv-x="2106" d="M1947 536q0 -47 -7 -87t-20 -76t-32 -68.5t-42 -65.5q-2 -2 -6.5 -7.5t-23.5 -24.5q78 -14 151 -22.5t141 -8.5q32 0 55.5 -22.5t23.5 -55.5q0 -32 -23.5 -55t-55.5 -23q-127 0 -246 18.5t-224 54.5l-67 -22q-48 -18 -116.5 -31.5t-148.5 -23t-168.5 -14t-176.5 -4.5 q-300 1 -497.5 74t-284.5 221q-36 60 -50 122t-14 122q0 55 8 102.5t19.5 86.5t24 68t20.5 46q35 -19 69.5 -38t69.5 -38q-8 -17 -17 -40t-17.5 -52t-14 -63.5t-5.5 -72.5q0 -41 10.5 -83.5t32.5 -80.5q32 -51 82 -90.5t121.5 -67t167.5 -42.5t219 -18q29 -1 55.5 -1.5 t51.5 -0.5q69 0 126.5 3.5t108 9t94.5 13t86 15.5q-41 33 -70.5 72t-49.5 79.5t-29.5 80.5t-9.5 76q0 72 27 146.5t74 134.5t112 98t142 38q63 0 119 -23t99 -70q18 -18 36.5 -44t34 -61.5t25.5 -81t10 -102.5zM1629 263q100 57 144 123.5t44 141.5q0 52 -12 90t-30.5 63.5 t-41 41t-44 23.5t-39.5 10.5t-27 2.5q-31 0 -67.5 -16t-67.5 -49t-51.5 -82.5t-20.5 -115.5q0 -26 14.5 -60t42 -67.5t67 -62t89.5 -43.5z"/>
    <glyph glyph-name="uni066F" unicode="ٯ" horiz-adv-x="1581" d="M1063 21q-105 8 -182.5 41t-124.5 94q-65 83 -65 195q0 47 9.5 96t26 95.5t38.5 87.5t47 73q46 60 101.5 90.5t115.5 30.5q68 0 128.5 -31t117.5 -92v1q43 -48 76.5 -109t57 -130t36 -144.5t12.5 -152.5q0 -23 -1 -45.5t-3 -45.5q1 -2 -1 -32t-11.5 -78t-29 -108 t-52.5 -123q-80 -154 -209 -242q-81 -57 -176 -84t-209 -27q-196 0 -338 74q-76 38 -135 91t-98 123q-43 70 -65.5 152.5t-22.5 175.5q0 29 3 61q17 220 142 462q39 -21 71 -38.5t69 -37.5q-63 -121 -94.5 -233t-31.5 -213q0 -69 15.5 -131.5t47.5 -116.5 q61 -101 174.5 -155t259.5 -56q9 -1 19 -1h18q99 0 181 40t144.5 106.5t104.5 153t62 180.5zM1029 665q-29 -3 -54 -20t-46 -43.5t-37.5 -59t-27.5 -66t-17 -65.5t-6 -56q0 -64 29 -99v1q17 -22 43.5 -36.5t55 -23.5t56 -13t47.5 -6q60 -3 112 -3q28 0 62.5 1t54.5 3 q-3 70 -16 133t-32.5 115.5t-44 95t-50.5 72.5q-12 12 -26 24.5t-30.5 22.5t-34.5 16.5t-38 6.5z"/>
    <glyph glyph-name="onedot.above" horiz-adv-x="1024" d="M671 1224l-147 -147l-148 148l147 147z"/>
    <glyph glyph-name="twodots.above" horiz-adv-x="1024" d="M488 1022l-146 -146l-148 147l146 147zM843 1020l-145 -146l-148 148l146 146z"/>
    <glyph glyph-name="threedots.above" horiz-adv-x="1151" d="M622 1152l146 146l148 -148l-146 -146zM216 1153l146 147l148 -148l-146 -147zM439 1443l132 132l133 -133l-132 -132z"/>
    <glyph glyph-name="threedots.below" horiz-adv-x="1057" d="M743 -90l146 -146l-148 -148l-146 146zM337 -91l146 -147l-148 -148l-146 147zM545 -396l132 -132l-133 -133l-132 132z"/>
    <glyph glyph-name="uni0660" unicode="٠" horiz-adv-x="967" d="M149 483q0 70 26.5 132t72.5 108.5t108 73.5t132 27t132 -27t108.5 -73.5t73.5 -108.5t27 -132t-27 -132t-73.5 -108t-108.5 -72.5t-132 -26.5t-132 26.5t-108 72.5t-72.5 108t-26.5 132zM301 483q0 -39 15 -73.5t40.5 -60t60 -40.5t73.5 -15t74 15t60.5 40.5t40.5 60 t15 73.5t-15 74t-40.5 60.5t-60.5 40.5t-74 15t-73.5 -15t-60 -40.5t-40.5 -60.5t-15 -74z"/>
    <glyph glyph-name="uni0661" unicode="١" horiz-adv-x="633" d="M320 11q0 193 -8 383.5t-31 366t-66.5 329.5t-115.5 274l122 78q76 -125 126 -292t79 -382q13 -96 20.5 -193.5t12 -193.5t6 -189.5t1.5 -180.5h-146z"/>
    <glyph glyph-name="uni0662" unicode="٢" horiz-adv-x="1142" d="M979 1463q4 -23 8.5 -70.5t2.5 -106.5v-1q-5 -226 -105 -343q-46 -57 -113 -86t-148 -29q-49 0 -99 11.5t-101 33.5l7 -68l6 -37q12 -95 20 -192.5t12.5 -194.5t6 -190.5t1.5 -179.5h-146q0 157 -4.5 314.5t-19 306.5t-41.5 286.5t-73 255.5q-19 48 -37.5 94t-46.5 95 l123 79q27 -45 51 -97t46 -110q0 -2 0.5 -2t0.5 -1t1 -1v1q26 -59 51.5 -107t58.5 -82t76.5 -52.5t106.5 -18.5q50 0 86.5 15.5t63.5 47.5q21 25 35 57.5t22 68.5t11.5 74t3.5 74q0 39 -3 71.5t-6 56.5z"/>
    <glyph glyph-name="uni0663" unicode="٣" horiz-adv-x="1467" d="M1280 1473q14 -76 21 -142t7 -122q0 -187 -77 -279q-34 -41 -82 -63t-107 -22q-24 0 -51.5 6.5t-56 23t-58 45.5t-57.5 74q-13 -18 -25 -36t-20 -28q-44 -48 -94.5 -75.5t-120.5 -27.5q-20 0 -35.5 2t-31 6.5t-32.5 11.5t-40 16l13 -96q13 -96 20.5 -193t12 -193t6 -189 t1.5 -181h-145q1 41 1 73.5v73.5q0 149 -10 292t-30 276t-50.5 254.5t-72.5 227.5v-1q-1 3 -4 9t-10.5 22.5t-21.5 45.5t-38 78l135 81q13 -22 32 -59.5t36 -75.5q20 -44 42 -93q30 -68 53 -114.5t46.5 -75t52 -41t70.5 -12.5q40 0 60.5 13t43.5 40q31 38 50 104t21 151 q0 9 -0.5 29t-1.5 44t-2.5 48t-2.5 41l144 18q2 -13 4 -34.5t4 -50.5q6 -66 16.5 -134.5t29.5 -125.5q16 -46 33 -71t33 -36.5t29.5 -13.5t21.5 -2q32 0 50 10t27 20q6 7 13.5 21.5t14.5 37t11.5 54.5t4.5 75q0 45 -5.5 103.5t-19.5 133.5z"/>
    <glyph glyph-name="uni0664" unicode="٤" horiz-adv-x="1217" d="M792 733q-106 0 -192.5 34.5t-161.5 116.5l22 -138q10 -87 17 -180.5t10.5 -187.5t5 -186.5t1.5 -176.5h-157q0 190 -8 376.5t-31.5 358.5t-66.5 325t-113 277q34 21 57 35.5t38.5 23.5t24 14t12.5 7q31 -53 60.5 -111.5t58.5 -138.5q18 64 54 117t86 91t113 59t136 23 q94 2 180.5 -42t161.5 -119l-116 -111q-23 21 -47.5 42.5t-51.5 38.5t-57.5 26.5t-64.5 8.5q-51 -4 -99 -27.5t-81 -61.5h1q-31 -38 -53.5 -76.5t-17.5 -85.5v1q7 -45 34 -78t66 -55t85.5 -33t93.5 -11q28 0 62.5 6.5t70 18t67.5 28t55 37.5l71 -129q-31 -30 -72.5 -52 t-86 -36.5t-88 -21.5t-79.5 -7z"/>
    <glyph glyph-name="uni0665" unicode="٥" horiz-adv-x="1379" d="M916 -1q-65 0 -120 33t-92 93l-25 38q-28 -47 -44 -66q-40 -48 -91.5 -72.5t-109.5 -24.5q-57 0 -111.5 27.5t-95.5 77.5h1q-63 77 -78 193q-4 23 -5.5 47.5t-1.5 48.5q0 45 6.5 98t17.5 109q18 78 46.5 160.5t70.5 174t98.5 193.5t130.5 217l-51 56l103 100 q85 -80 177.5 -172t189.5 -214q45 -57 86 -120t76 -129t63.5 -132.5t50.5 -130.5q12 -43 20.5 -93t8.5 -96q0 -14 -1 -30t-3 -32q-8 -68 -28 -129t-55 -106q-43 -60 -102 -89.5t-131 -29.5h-1zM752 509q0 -31 3.5 -71t11 -81t19.5 -80t30.5 -70t43 -50t57.5 -19 q39 0 68.5 15.5t53.5 47.5q28 38 42.5 94.5t14.5 119.5q0 37 -5.5 74t-16.5 73q-36 115 -89.5 215.5t-115 186.5t-127 157.5t-125.5 129.5q-68 -109 -119.5 -202.5t-90 -176t-64 -156.5t-40.5 -144q-11 -48 -16 -93.5t-5 -86.5q0 -66 13.5 -116.5t40.5 -84.5q24 -28 51 -39 t47 -11q51 0 94.5 45t69.5 132q11 38 17.5 73.5t10.5 62.5q4 32 5 60z"/>
    <glyph glyph-name="uni0666" unicode="٦" horiz-adv-x="1160" d="M126 52q6 19 22 57.5t41 90.5t58.5 114t75.5 127q26 39 57.5 80.5t67 83t73 81.5t75.5 76q-70 4 -132 22t-110.5 46.5t-82 66.5t-46.5 83v-1q-7 26 -10.5 50.5t-3.5 50.5q0 86 39.5 163t114.5 134q54 44 120 68t138 29q8 1 14.5 1h14.5q134 0 258 -68l-74 -124 q-48 26 -93.5 37t-87.5 11q-63 0 -114.5 -19.5t-87.5 -46.5q-48 -38 -73.5 -85.5t-25.5 -99.5q0 -32 10 -61q6 -20 25 -39.5t47.5 -35t65 -26t79.5 -10.5q46 -1 96 4.5t97.5 15t89.5 20.5t73 21l27 9l22 8l45 -140q-16 -7 -54 -16q-115 -43 -210.5 -114.5t-172 -155 t-134.5 -171.5t-98.5 -165t-64.5 -135t-33 -82z"/>
    <glyph glyph-name="uni0667" unicode="٧" horiz-adv-x="1328" d="M918 760q-40 -115 -71 -223.5t-52 -205t-33 -179t-13 -145.5h-145q-2 148 -21.5 284.5t-53.5 263t-79 243t-97 224t-109 206.5t-114 191l121 77q116 -185 201 -355.5t144 -333.5q21 -60 43 -136t45 -165q45 150 97.5 298t106.5 279t105.5 238t93.5 175l120 -78 q-30 -50 -66 -123.5t-74 -160.5t-76.5 -183t-72.5 -191z"/>
    <glyph glyph-name="uni0668" unicode="٨" horiz-adv-x="1297" d="M1063 2q-41 67 -92 173t-104.5 237t-107 279.5t-98.5 300.5q-23 -92 -44 -166.5t-44 -135.5q-58 -164 -142.5 -333t-202.5 -355l-121 76q57 92 114 191t109 207t97 224.5t78.5 243t53.5 263t21 284.5h145q1 -64 13 -146.5t33.5 -179t52.5 -205t71 -223.5 q33 -89 71.5 -184t77.5 -183.5t75.5 -164.5t65.5 -127z"/>
    <glyph glyph-name="uni0669" unicode="٩" horiz-adv-x="1041" d="M447 936q148 -7 199 18q-8 136 -27 234q-6 29 -16 58q-14 38 -33 68q-51 79 -127 79q-87 0 -145 -95q-48 -76 -58 -171q-7 -70 31 -117q56 -68 176 -74zM778 786q-1 -140 52 -386q7 -33 15 -65q11 -44 22 -82q29 -102 55 -145q-2 -3 -7 -9q-14 -17 -39 -50 q-31 -39 -46 -59q-69 98 -125 323q-59 240 -60 459v28l-28 -4q-51 -9 -104 -9q-218 0 -326 124q-83 94 -63 240q13 99 58 188q53 105 136 160q63 42 140 42q112 0 191 -81q89 -93 116 -296q11 -78 13 -180q1 -40 1 -88v-43v-41z"/>
    <glyph glyph-name="uni06F4" unicode="۴" horiz-adv-x="1217" d="M792 733q-106 0 -192.5 34.5t-161.5 116.5l22 -138q10 -87 17 -180.5t10.5 -187.5t5 -186.5t1.5 -176.5h-157q0 190 -8 376.5t-31.5 358.5t-66.5 325t-113 277q34 21 57 35.5t38.5 23.5t24 14t12.5 7q31 -53 60.5 -111.5t58.5 -138.5q18 64 54 117t86 91t113 59t136 23 q94 2 180.5 -42t161.5 -119l-116 -111q-23 21 -47.5 42.5t-51.5 38.5t-57.5 26.5t-64.5 8.5q-51 -4 -99 -27.5t-81 -61.5h1q-31 -38 -53.5 -76.5t-17.5 -85.5v1q7 -45 34 -78t66 -55t85.5 -33t93.5 -11q28 0 62.5 6.5t70 18t67.5 28t55 37.5l71 -129q-31 -30 -72.5 -52 t-86 -36.5t-88 -21.5t-79.5 -7z"/>
    <glyph glyph-name="uni06F5" unicode="۵" horiz-adv-x="1379" d="M916 -1q-65 0 -120 33t-92 93l-25 38q-28 -47 -44 -66q-40 -48 -91.5 -72.5t-109.5 -24.5q-57 0 -111.5 27.5t-95.5 77.5h1q-63 77 -78 193q-4 23 -5.5 47.5t-1.5 48.5q0 45 6.5 98t17.5 109q18 78 46.5 160.5t70.5 174t98.5 193.5t130.5 217l-51 56l103 100 q85 -80 177.5 -172t189.5 -214q45 -57 86 -120t76 -129t63.5 -132.5t50.5 -130.5q12 -43 20.5 -93t8.5 -96q0 -14 -1 -30t-3 -32q-8 -68 -28 -129t-55 -106q-43 -60 -102 -89.5t-131 -29.5h-1zM752 509q0 -31 3.5 -71t11 -81t19.5 -80t30.5 -70t43 -50t57.5 -19 q39 0 68.5 15.5t53.5 47.5q28 38 42.5 94.5t14.5 119.5q0 37 -5.5 74t-16.5 73q-36 115 -89.5 215.5t-115 186.5t-127 157.5t-125.5 129.5q-68 -109 -119.5 -202.5t-90 -176t-64 -156.5t-40.5 -144q-11 -48 -16 -93.5t-5 -86.5q0 -66 13.5 -116.5t40.5 -84.5q24 -28 51 -39 t47 -11q51 0 94.5 45t69.5 132q11 38 17.5 73.5t10.5 62.5q4 32 5 60z"/>
    <glyph glyph-name="uni06F6" unicode="۶" horiz-adv-x="1160" d="M126 52q6 19 22 57.5t41 90.5t58.5 114t75.5 127q26 39 57.5 80.5t67 83t73 81.5t75.5 76q-70 4 -132 22t-110.5 46.5t-82 66.5t-46.5 83v-1q-7 26 -10.5 50.5t-3.5 50.5q0 86 39.5 163t114.5 134q54 44 120 68t138 29q8 1 14.5 1h14.5q134 0 258 -68l-74 -124 q-48 26 -93.5 37t-87.5 11q-63 0 -114.5 -19.5t-87.5 -46.5q-48 -38 -73.5 -85.5t-25.5 -99.5q0 -32 10 -61q6 -20 25 -39.5t47.5 -35t65 -26t79.5 -10.5q46 -1 96 4.5t97.5 15t89.5 20.5t73 21l27 9l22 8l45 -140q-16 -7 -54 -16q-115 -43 -210.5 -114.5t-172 -155 t-134.5 -171.5t-98.5 -165t-64.5 -135t-33 -82z"/>
    <glyph glyph-name="uni066A" unicode="٪" horiz-adv-x="1217" d="M212 19q73 195 145 385.5t144 380t144 380t145 384.5h179q-74 -195 -146 -385l-144 -380t-144.5 -380t-145.5 -385h-177zM1090 207l-174 -173l-175 175l174 173zM459 1327l-174 -173l-175 175l174 173z"/>
    <glyph glyph-name="uni061F" unicode="؟" horiz-adv-x="1024" d="M540 900q95 -105 95 -302v-123h-146v123q0 146 -113 246l-51 42q-36 30 -72.5 61t-73.5 60l3 -2q-99 105 -99 265q0 156 136 269v-1q66 54 139 81.5t155 27.5q94 0 170.5 -32.5t131.5 -90.5q48 -57 76.5 -136.5t32.5 -169.5h-146q-9 282 -265 282q-45 0 -93 -17.5 t-86 -44.5q-40 -35 -64.5 -78t-24.5 -89q0 -72 26.5 -128.5t83.5 -101.5q47 -37 93.5 -73t94.5 -71zM713 155l-149 -149l-141 141l148 150z"/>
    <glyph glyph-name="uni060C" unicode="،" horiz-adv-x="570" d="M486 149q0 -41 -37 -84h1q-48 -54 -125 -54q-86 0 -136 65q-46 59 -46 152q0 115 56 211.5t172 180.5q17 -13 34.5 -27.5t39.5 -31.5q-85 -66 -133.5 -143t-48.5 -158q17 14 42.5 21.5t52.5 8.5q57 -9 90 -44t38 -98v1z"/>
    <glyph glyph-name="uni061B" unicode="؛" horiz-adv-x="512" d="M364 125q0 -45 -35 -80q-35 -33 -80 -33q-47 0 -81 33q-34 34 -34 80q0 47 34 81t81 34q46 0 80 -34q35 -35 35 -81zM417 570q0 -41 -37 -84h1q-48 -54 -125 -54q-86 0 -136 65q-46 59 -46 152q0 226 174 342q17 -13 34.5 -27.5t39.5 -31.5q-128 -89 -128 -245 q60 18 96 18q127 0 127 -135z"/>
    <glyph glyph-name="uni066B" unicode="٫" horiz-adv-x="758" d="M2 -146l520 1084h143q-62 -139 -127.5 -273.5t-131.5 -268.5t-132 -269t-127 -273h-145z"/>
    <glyph glyph-name="uni066C" unicode="٬" horiz-adv-x="570" d="M102 193q2 29 15 54.5t34 44.5t49 30.5t60 12.5q46 1 81 -16.5t58.5 -47t35 -68.5t11.5 -82q5 -138 -73 -247t-246 -194q-17 35 -30 58.5t-22 36.5q270 124 252 306q-39 -16 -77 -19.5t-68.5 9t-52 42.5t-27.5 80z"/>
    <glyph glyph-name="uni066D" unicode="٭" horiz-adv-x="965" d="M391 764l90 317l91 -317q92 3 152.5 5t98 3t55.5 2t26 3l-277 -185q26 -75 55.5 -155t56.5 -155l-260 204l-256 -202l111 308l-274 183z"/>
    <glyph glyph-name="uni064B" unicode="ً" d="M485 1581l-616 -247v90l616 239v-82zM487 1322l-616 -247v90l616 239v-82z"/>
    <glyph glyph-name="uni064D" unicode="ٍ" d="M505 -168l-616 -247v90l616 239v-82zM507 -427l-616 -247v90l616 239v-82z"/>
    <glyph glyph-name="uni064E" unicode="َ" d="M477 1356l-616 -247v90l616 239v-82z"/>
    <glyph glyph-name="uni064F" unicode="ُ" d="M75 1550q-11 -40 20 -68q12 -12 31 -22l18 -9l17 -9l11 -5l96 -42q26 57 22 118q-3 70 -45 114q-18 19 -46 19q-39 0 -78 -32q-37 -30 -46 -64zM371 1356l-26 -68l-3 1v0l-1 1l-2 1l-3 1q-7 3 -14 5q-21 9 -27 11l-3 -3l-4 -4q-7 -5 -12 -10q-16 -14 -23 -20 q-70 -57 -175 -106q-6 -3 -29 -13q-26 -11 -51 -22q-72 -30 -84 -32h-2l-26 71l3 1q167 48 334 161l-2 1l-14 6l-15 5l-31 13q-35 16 -60 31q-68 40 -90 92q-25 59 13 126q33 59 90 90q42 23 90 23q20 0 41 -5q31 -7 58 -35q10 -10 19 -23q6 -9 12 -19q29 -54 30 -129 q0 -75 -28 -136z"/>
    <glyph glyph-name="uni064C" unicode="ٌ" d="M333 1383q49 92 13 183l-2 3l-1 4q-2 6 -5 11q-6 14 -14 24q-23 30 -57 26q-50 0 -93 -51q-30 -36 -25 -67q6 -33 36 -58q12 -9 29 -19l15 -8l16 -8l10 -5q22 -11 78 -35zM438 1346l-26 -72l-48 17l-1 -1q-16 -15 -34 -29q-36 -28 -84 -53q-35 -18 -82 -38 q-71 -31 -158 -52q-13 -4 -36 -9q-8 -2 -17 -4q-6 -2 -10 -3l-42 61v2l1 2l2 8q4 10 7 18q8 26 9 33q5 20 7 38q2 23 0 42q-4 48 -34 62q-14 6 -30 6q-24 0 -54 -15q-6 -3 -21 -13l-10 -8l-5 -3l-3 -3l-46 56q62 60 140 60q44 0 78 -24q85 -58 48 -232l-1 -4l4 1 q89 28 145 51q83 35 143 78l4 2l-4 2q-14 7 -42 20l-34 16q-18 9 -32 17q-36 21 -57 44q-43 50 -39 112q5 72 66 125q60 52 127 52h8q68 -4 113 -70q41 -59 38 -143q-1 -58 -25 -133l-1 -3z"/>
    <glyph glyph-name="uni0650" unicode="ِ" d="M501 -215l-616 -247v90l616 239v-82z"/>
    <glyph glyph-name="uni0651" unicode="ّ" d="M53 1088q-32 1 -56.5 8t-42 17t-29 22t-18.5 24q-13 20 -17.5 43t-4.5 46q0 43 11.5 81.5t21.5 57.5q18 -9 35 -16t34 -15q-9 -23 -16.5 -52.5t-7.5 -56.5q0 -14 1.5 -26t7.5 -22q9 -16 33 -25t51 -9q19 0 36.5 5.5t29.5 20.5l-1 -1q25 29 32.5 75t7.5 85q0 10 -0.5 16 t-0.5 13q16 3 29 6q12 2 23 5t14 7q10 -72 23.5 -115t29.5 -65.5t31 -29.5t27 -7q47 3 66 31.5t19 68.5q0 23 -5 48.5t-15 50t-22 47t-26 39.5q16 12 32 22t31 20q9 -14 23.5 -39t28 -55t23 -63.5t9.5 -65.5q0 -10 -2 -30t-6 -31q-13 -34 -31.5 -56.5t-40 -36t-45 -19.5 t-44.5 -6q-26 0 -60 13t-67 56q-29 -41 -65 -63.5t-80 -22.5h-7z"/>
    <glyph glyph-name="uni0652" unicode="ْ" d="M183 1179q27 0 52 13t44.5 34.5t30.5 50t9 60.5q-1 25 -9.5 53.5t-26 51.5t-42 37.5t-58.5 14.5q-31 0 -56 -15.5t-43.5 -38t-28 -50.5t-9.5 -53q0 -28 11.5 -56t30 -50.5t43.5 -37t52 -14.5zM183 1579q49 0 88.5 -22.5t68.5 -57t45.5 -77.5t18.5 -85q1 -47 -16 -90 t-47 -77.5t-70.5 -55t-87.5 -20.5q-50 -1 -91 20t-70 56t-44.5 79t-15.5 88q0 42 15.5 85t44.5 77.5t70 57t91 22.5z"/>
    <glyph glyph-name="uni0653" unicode="ٓ" d="M-185 1309q5 14 15.5 42t24.5 51h-1q30 48 70.5 77.5t84.5 37.5q10 2 21.5 2.5t19.5 0.5q42 0 77 -10.5t65 -23.5q29 -11 56 -19.5t59 -9.5q24 -1 46.5 9.5t42 25.5t34 31t22.5 26q28 -17 49.5 -32t48.5 -32q-5 -9 -25 -34t-52.5 -50.5t-75.5 -45.5t-95 -18q-40 1 -74 11 t-63 20h1l-16 6q-33 13 -62 21t-61 3h1q-19 -2 -35.5 -16.5t-29 -33.5t-22 -39t-14.5 -35z"/>
    <glyph glyph-name="uni0654" unicode="ٔ" d="M370 1826q-15 2 -32 5q-15 3 -31 4.5t-32 1.5q-18 0 -36 -3t-37 -12h1q-39 -15 -63 -49.5t-24 -73.5q0 -9 2 -21t8 -24q8 -20 23.5 -37.5t35.5 -31t43.5 -21t49.5 -7.5q12 0 24 1.5t27 7.5l-1 -1q24 7 47.5 18.5t43.5 23t35.5 21.5t22.5 16l53 -69q-42 -29 -106 -65 t-154 -86l-244 -135q-12 22 -21 39t-21 38l210 117q-53 23 -92.5 59.5t-58.5 77.5q-14 36 -14 79q0 33 10 64.5t29 58t44.5 48t57.5 34.5q51 20 105 20q39 0 72.5 -6.5t48.5 -11.5z"/>
    <glyph glyph-name="uni0655" unicode="ٕ" d="M452 50q-15 2 -32 5q-15 3 -31 4.5t-32 1.5q-18 0 -36 -3t-37 -12h1q-39 -15 -63 -49.5t-24 -73.5q0 -9 2 -21t8 -24q8 -20 23.5 -37.5t35.5 -31t43.5 -21t49.5 -7.5q12 0 24 1.5t27 7.5l-1 -1q24 7 47.5 18.5t43.5 23t35.5 21.5t22.5 16l53 -69q-42 -29 -106 -65 t-154 -86l-244 -135q-12 22 -21 39t-21 38l210 117q-53 23 -92.5 59.5t-58.5 77.5q-14 36 -14 79q0 33 10 64.5t29 58t44.5 48t57.5 34.5q51 20 105 20q39 0 72.5 -6.5t48.5 -11.5z"/>
    <glyph glyph-name="uni0670" unicode="ٰ" d="M7 1140q8 40 12.5 85.5t4.5 87.5q0 22 -1.5 50t-4 57.5t-6 56t-7.5 47.5q18 6 41.5 10.5t39.5 10.5q4 -19 7.5 -46t6 -56t4 -58t1.5 -54q0 -48 -4 -99t-15 -112z"/>
    <glyph glyph-name="uni0656" unicode="ٖ" d="M13 -653q8 40 12.5 85.5t4.5 87.5q0 22 -1.5 50t-4 57.5t-6 56t-7.5 47.5q18 6 41.5 10.5t39.5 10.5q4 -19 7.5 -46t6 -56t4 -58t1.5 -54q0 -48 -4 -99t-15 -112z"/>
    <glyph glyph-name="uni0615" unicode="ؕ" d="M346 961q-52 -27 -113 -36q-81 -11 -177 0q91 124 168 180q39 28 68 41q42 18 77 12q42 -7 61 -42q18 -36 1 -75q-2 -4 -2 -3l2 3q1 3 1 4q1 1 -1 -4q-22 -47 -85 -80zM458 1200q-49 34 -113 34q-57 0 -123 -39q-47 -28 -104 -81q0 78 -8 181l-5 52l-6 53q-8 68 -11 106 l-80 -10q14 -76 24 -173l5 -54l4 -54q3 -60 0 -108l-4 -42l-1 -13l-2 -14q-2 -17 -8 -25l-32 -43l-6 -10l-7 -10q-8 -11 -18 -9q-51 14 -100 33l-15 -36l-15 -35q223 -85 417 -52q110 19 193 88q35 29 55 73q21 47 17 89v9v-5q1 -4 1 -6t-1 2q-3 61 -57 99z"/>
    <glyph glyph-name="wasla" d="M37 1449q27 -3 61 -3.5t68.5 3.5t66.5 13.5t53 27.5q26 23 29 57q0 14 -6.5 25t-11.5 16q-20 21 -42 23.5t-40 -0.5q-27 -5 -53.5 -18.5t-49.5 -36.5q-29 -29 -48 -59.5t-27 -47.5zM-237 1480q26 13 52 22q22 8 45.5 13t40.5 1t30.5 -10.5t23.5 -14.5q11 -9 19 -19 q10 19 33 57t61 75q29 28 64 46.5t71 23.5q42 9 78.5 -1.5t62.5 -38.5q19 -20 28.5 -43t6.5 -49q-2 -62 -53 -104q-22 -18 -49.5 -29t-57 -17.5t-60 -9t-57.5 -2.5q-29 0 -52 2t-33 3q-25 3 -49 14q-14 6 -26.5 15.5t-26.5 28.5q-16 12 -39 9t-44 -12q-25 -11 -51 -28z"/>
    <glyph glyph-name="beh_dotless_alt.init" horiz-adv-x="843" d="M-78 98q0 33 23 55.5t55 22.5h111q56 0 123.5 2.5t130.5 15t113.5 39t71.5 73.5v-1q16 33 16 88q0 47 -14 106t-36 129q-8 25 -19.5 54t-22.5 56.5t-21.5 50.5t-16.5 37l142 71q6 -14 16 -36t22 -51t24.5 -63t24.5 -71q26 -81 39 -151t13 -130q0 -88 -28 -153 q-35 -73 -95.5 -125.5t-144.5 -75.5q-26 -8 -67 -12t-84.5 -6t-82.5 -2.5t-61 -0.5h-154q-32 0 -55 22.5t-23 55.5z"/>
    <glyph glyph-name="beh_dotless_alt.medi" horiz-adv-x="852" d="M-81 98q0 33 22.5 55.5t55.5 22.5h76q88 0 169 9t142.5 35t96.5 74.5t32 127.5q-1 27 -3 51.5t-6.5 51t-11 56.5t-16.5 68q42 11 75.5 21.5t73.5 21.5q12 -43 19 -79t11.5 -69.5t8 -67t8.5 -72.5q5 -42 12.5 -82.5t26 -73t52.5 -52.5t92 -20q33 0 56.5 -22.5t23.5 -55.5 t-23 -55.5t-55 -22.5q-48 0 -88 10.5t-73.5 29t-61.5 43.5t-50 55q-39 -38 -97 -64t-126.5 -42.5t-142.5 -24t-145 -7.5h-76q-33 0 -55.5 22.5t-22.5 55.5z"/>
    <glyph glyph-name="onedot.below" horiz-adv-x="1024" d="M586 -360l-147 -147l-148 148l147 147z"/>
    <glyph glyph-name="twodots.below" horiz-adv-x="1024" d="M467 -363l-148 -148l-150 149l148 149zM861 -364l-148 -149l-150 150l148 148z"/>
    <glyph glyph-name="alef_alt.isol" horiz-adv-x="467" d="M141 23q7 108 11.5 204t6 187.5t1 182t-1.5 189.5q-2 82 -5 152t-8 122q-7 93 -14 190.5t-20 193.5q43 7 77.5 9.5t76.5 7.5q9 -66 16.5 -137.5t13.5 -144.5t10 -145.5t7 -140.5q2 -68 3.5 -143t1.5 -159q0 -130 -4 -273.5t-15 -303.5z"/>
    <glyph glyph-name="alef_alt.fina" horiz-adv-x="542" d="M542 20q-106 0 -181 24.5t-126 75.5q-31 31 -47.5 67t-24 71t-8.5 67t-1 55q1 30 2.5 105t1.5 180q0 59 -0.5 128.5t-2 139t-4 144.5t-6 139t-8.5 118.5t-12 97.5l156 28q8 -47 13.5 -105t9 -126t6 -147t3.5 -152.5t1.5 -147.5t0.5 -137q0 -77 -0.5 -140.5t-1.5 -126.5 q-1 -48 4 -84.5t32 -62.5q25 -25 71 -39.5t113 -15.5h9q32 0 55.5 -23t23.5 -55q0 -33 -23.5 -55.5t-55.5 -22.5z"/>
    <glyph glyph-name="uni06D5" unicode="ە" horiz-adv-x="983" d="M485 16q-5 0 -23.5 1t-47 5.5t-63 13.5t-70.5 26q-89 42 -135.5 113t-46.5 168q0 85 40 177t118 187q31 37 67 72.5t65 62.5q-29 25 -44 39t-21.5 21t-7.5 8t-2 0l107 114q13 -12 36.5 -33t52.5 -49t61.5 -60.5t63.5 -66.5q117 -134 177.5 -254t60.5 -218q0 -97 -43 -168 t-125 -112q-31 -15 -62.5 -24t-60.5 -14.5t-54 -7t-43 -1.5zM473 719q-30 -26 -70 -68.5t-76 -93t-61 -106t-25 -107.5q0 -34 23.5 -72t84.5 -67h-1q21 -10 42 -16t39.5 -9t33 -4t22.5 -1q10 0 27 0.5t37.5 3.5t43 8.5t42.5 15.5q43 23 69 53.5t26 81.5q0 34 -16.5 76.5 t-46 91t-70.5 101.5t-90 107l-18 20z"/>
    <glyph glyph-name="heh_ae.fina" horiz-adv-x="1090" d="M544 160q-249 0 -344 118q-27 33 -37.5 72t-10.5 75q0 32 5 58t13 43q26 54 63 99.5t80 82.5t88.5 66.5t89 52t82 38t67.5 26.5l-15 145l157 34q1 -8 3.5 -35t6.5 -63t8 -76.5t8 -76t7 -62t4 -33.5v1q15 -131 28.5 -214t23.5 -132t17 -70.5t10 -28.5v1q13 -31 30.5 -51 t40.5 -32t52.5 -17t68.5 -5q32 0 55.5 -22.5t23.5 -55.5q0 -32 -23.5 -55t-55.5 -23q-38 0 -88 6t-99 29h1q-75 35 -131 126q-135 -21 -229 -21zM634 720q-25 -11 -59.5 -26t-71 -34.5t-72.5 -43t-64.5 -51t-46 -59.5t-17.5 -67q0 -37 20.5 -61t53.5 -38.5t75 -20t86 -5.5 q46 0 95 5.5t86 12.5q-14 69 -28.5 170t-30.5 228z"/>
    <glyph glyph-name="uni06C2" unicode="ۂ" horiz-adv-x="1330" d="M1333 176q32 0 55 -23t23 -55t-23 -55t-55 -23q-74 0 -132.5 22.5t-108 60t-92.5 85t-86 97.5q-34 40 -68 77.5t-71 66.5t-76.5 47t-84.5 18q-41 0 -84 -13h1q-51 -18 -93.5 -60.5t-77.5 -101t-62.5 -130t-48.5 -149.5l-150 40q25 96 59 184.5t80 161.5t106.5 126 t139.5 77q36 11 68.5 16t61.5 5q70 0 128.5 -23t109 -60.5t94.5 -84.5t86 -95q32 -37 66.5 -74.5t72 -68t78 -49.5t84.5 -19zM425 1093q-12 3 -27 6q-13 2 -29.5 4.5t-35.5 2.5q-15 0 -30.5 -2.5t-31.5 -9.5v2q-32 -14 -51.5 -42.5t-19.5 -61.5q0 -17 8 -36l-1 1 q14 -35 49.5 -58.5t78.5 -23.5q11 0 21 1t21 6q26 8 51 21t45 25q23 14 43 29l59 -78q-39 -29 -98 -62t-144 -80l-227 -126l-48 87l179 100q-41 17 -72.5 49t-48.5 71q-14 34 -14 74q0 31 9.5 60.5t27 55t42 45.5t54.5 32q47 19 98 19q23 0 44 -3t38 -7q19 -4 38 -9z"/>
    <glyph glyph-name="uni06C3" unicode="ۃ" horiz-adv-x="1390" d="M1391 176q32 0 55 -23t23 -55t-23 -55t-55 -23q-74 0 -132.5 22.5t-108 60t-92.5 85t-86 97.5q-34 40 -68 77.5t-71 66.5t-76.5 47t-84.5 18q-41 0 -84 -13h1q-51 -18 -93.5 -60.5t-77.5 -101t-62.5 -130t-48.5 -149.5l-150 40q25 96 59 184.5t80 161.5t106.5 126 t139.5 77q36 11 68.5 16t61.5 5q70 0 128.5 -23t109 -60.5t94.5 -84.5t86 -95q32 -37 66.5 -74.5t72 -68t78 -49.5t84.5 -19zM515 985l-146 -146l-148 147l146 147zM870 983l-145 -146l-148 148l146 146z"/>
    <glyph glyph-name="uni06F0" unicode="۰" horiz-adv-x="975" d="M149 503q0 70 26.5 132t72.5 108.5t108 73.5t132 27t132 -27t108.5 -73.5t73.5 -108.5t27 -132t-27 -132t-73.5 -108t-108.5 -72.5t-132 -26.5t-132 26.5t-108 72.5t-72.5 108t-26.5 132zM301 503q0 -39 15 -73.5t40.5 -60t60 -40.5t73.5 -15t74 15t60.5 40.5t40.5 60 t15 73.5t-15 74t-40.5 60.5t-60.5 40.5t-74 15t-73.5 -15t-60 -40.5t-40.5 -60.5t-15 -74z"/>
    <glyph glyph-name="uni06F1" unicode="۱" horiz-adv-x="708" d="M320 11q0 193 -8 383.5t-31 366t-66.5 329.5t-115.5 274l122 78q76 -125 126 -292t79 -382q13 -96 20.5 -193.5t12 -193.5t6 -189.5t1.5 -180.5h-146z"/>
    <glyph glyph-name="uni06F2" unicode="۲" horiz-adv-x="1133" d="M979 1463q4 -23 8.5 -70.5t2.5 -106.5v-1q-5 -226 -105 -343q-46 -57 -113 -86t-148 -29q-49 0 -99 11.5t-101 33.5l7 -68l6 -37q12 -95 20 -192.5t12.5 -194.5t6 -190.5t1.5 -179.5h-146q0 157 -4.5 314.5t-19 306.5t-41.5 286.5t-73 255.5q-19 48 -37.5 94t-46.5 95 l123 79q27 -45 51 -97t46 -110q0 -2 0.5 -2t0.5 -1t1 -1v1q26 -59 51.5 -107t58.5 -82t76.5 -52.5t106.5 -18.5q50 0 86.5 15.5t63.5 47.5q21 25 35 57.5t22 68.5t11.5 74t3.5 74q0 39 -3 71.5t-6 56.5z"/>
    <glyph glyph-name="uni06F3" unicode="۳" horiz-adv-x="1466" d="M1280 1473q14 -76 21 -142t7 -122q0 -187 -77 -279q-34 -41 -82 -63t-107 -22q-24 0 -51.5 6.5t-56 23t-58 45.5t-57.5 74q-13 -18 -25 -36t-20 -28q-44 -48 -94.5 -75.5t-120.5 -27.5q-20 0 -35.5 2t-31 6.5t-32.5 11.5t-40 16l13 -96q13 -96 20.5 -193t12 -193t6 -189 t1.5 -181h-145q1 41 1 73.5v73.5q0 149 -10 292t-30 276t-50.5 254.5t-72.5 227.5v-1q-1 3 -4 9t-10.5 22.5t-21.5 45.5t-38 78l135 81q13 -22 32 -59.5t36 -75.5q20 -44 42 -93q30 -68 53 -114.5t46.5 -75t52 -41t70.5 -12.5q40 0 60.5 13t43.5 40q31 38 50 104t21 151 q0 9 -0.5 29t-1.5 44t-2.5 48t-2.5 41l144 18q2 -13 4 -34.5t4 -50.5q6 -66 16.5 -134.5t29.5 -125.5q16 -46 33 -71t33 -36.5t29.5 -13.5t21.5 -2q32 0 50 10t27 20q6 7 13.5 21.5t14.5 37t11.5 54.5t4.5 75q0 45 -5.5 103.5t-19.5 133.5z"/>
    <glyph glyph-name="uni06F9" unicode="۹" horiz-adv-x="1125" d="M461 936q148 -7 199 18q-8 136 -27 234q-6 29 -16 58q-14 38 -33 68q-51 79 -127 79q-87 0 -145 -95q-48 -76 -58 -171q-7 -70 31 -117q56 -68 176 -74zM792 786q-1 -140 52 -386q7 -33 15 -65q11 -44 22 -82q29 -102 55 -145q-2 -3 -7 -9q-14 -17 -39 -50 q-31 -39 -46 -59q-69 98 -125 323q-59 240 -60 459v28l-28 -4q-51 -9 -104 -9q-218 0 -326 124q-83 94 -63 240q13 99 58 188q53 105 136 160q63 42 140 42q112 0 191 -81q89 -93 116 -296q11 -78 13 -180q1 -40 1 -88v-43v-41z"/>
    <glyph glyph-name="uni06F7" unicode="۷" horiz-adv-x="1292" d="M896 760q-40 -115 -71 -223.5t-52 -205t-33 -179t-13 -145.5h-145q-2 148 -21.5 284.5t-53.5 263t-79 243t-97 224t-109 206.5t-114 191l121 77q116 -185 201 -355.5t144 -333.5q21 -60 43 -136t45 -165q45 150 97.5 298t106.5 279t105.5 238t93.5 175l120 -78 q-30 -50 -66 -123.5t-74 -160.5t-76.5 -183t-72.5 -191z"/>
    <glyph glyph-name="uni06F8" unicode="۸" horiz-adv-x="1291" d="M1063 2q-41 67 -92 173t-104.5 237t-107 279.5t-98.5 300.5q-23 -92 -44 -166.5t-44 -135.5q-58 -164 -142.5 -333t-202.5 -355l-121 76q57 92 114 191t109 207t97 224.5t78.5 243t53.5 263t21 284.5h145q1 -64 13 -146.5t33.5 -179t52.5 -205t71 -223.5 q33 -89 71.5 -184t77.5 -183.5t75.5 -164.5t65.5 -127z"/>
    <glyph glyph-name="uni06F4.urdu" horiz-adv-x="1167" d="M715 984q19 51 53.5 108.5t76 111t86.5 98t84 70.5q7 -12 15.5 -27t17 -29t16.5 -26.5t13 -21.5q-68 -65 -130 -140q-27 -32 -55 -69.5t-54.5 -79t-50 -86.5t-41.5 -91q-23 -8 -43 -14.5t-42 -13.5q-17 75 -46.5 143.5t-67.5 123.5q-43 61 -89.5 96.5t-93.5 26.5h1 q-23 -4 -39 -15t-26 -27t-14.5 -34.5t-4.5 -36.5q0 -52 26.5 -140.5t92.5 -223.5l88 -180v1q34 -75 59.5 -145.5t43.5 -132.5t28 -114.5t12 -92.5l-116 -32q-15 90 -44 187t-71 195q-43 100 -82.5 189.5t-82.5 182.5q-15 33 -30 70.5t-26 77t-18 80.5t-7 81q0 69 25.5 128 t89.5 99q30 18 69.5 26t81 5t81 -18t68.5 -43q38 -38 74 -107t72 -160z"/>
    <glyph glyph-name="uni06F7.urdu" horiz-adv-x="1012" d="M503 184q94 0 183.5 9.5t175.5 23.5v-148q-51 -14 -101.5 -23.5t-104 -14.5t-111.5 -7t-124 -2q-28 0 -71 3t-88.5 7.5t-88 10t-69.5 11.5q-8 38 -12.5 76.5t-4.5 80.5q0 93 34 188.5t94 195.5q30 51 69 111.5t90 132t116 154.5t148 180l24 29l-1 -1q23 27 49.5 58 t50.5 58q12 -13 27 -29t29 -30q16 -17 33 -34q-22 -24 -43 -47q-18 -20 -38 -42t-34 -40l-240 -312q-79 -103 -133.5 -191.5t-88 -160t-48.5 -124.5t-15 -84q24 -10 56.5 -16t55.5 -9q2 0 4 -0.5t4 -0.5q26 -4 46.5 -6.5t40 -4t40 -2t46.5 -0.5z"/>
    <glyph glyph-name="Ghunna_above" d="M144 1092q-54 0 -102.5 17t-84.5 48q-34 30 -55 71t-29 88v-1q-4 25 -4 52q0 36 6.5 65t16.5 57l12 44q2 10 5 19t8 16q24 -8 45.5 -16t42.5 -16q-15 -26 -27.5 -69t-12.5 -101q0 -9 1 -19t2 -19q4 -17 13.5 -39.5t31 -44.5t57 -38t88.5 -18q85 4 138.5 35t72.5 87 q13 41 13 82q0 34 -7.5 65t-18.5 56.5t-23 45.5t-20 32l94 75q5 -8 17 -33.5t24.5 -62.5t21.5 -82.5t9 -95.5q0 -53 -18 -112q-13 -40 -38.5 -74t-59.5 -56q-39 -25 -89 -40.5t-113 -17.5h-17v0z"/>
    <glyph glyph-name="uni0651064B" d="M45 1083q-32 1 -56.5 8t-42 17t-29 22t-18.5 24q-13 20 -17.5 43t-4.5 46q0 43 11.5 81.5t21.5 57.5q18 -9 35 -16t34 -15q-9 -23 -16.5 -52.5t-7.5 -56.5q0 -14 1.5 -26t7.5 -22q9 -16 33 -25t51 -9q19 0 36.5 5.5t29.5 20.5l-1 -1q25 29 32.5 75t7.5 85q0 10 -0.5 16 t-0.5 13q16 3 29 6q12 2 23 5t14 7q10 -72 23.5 -115t29.5 -65.5t31 -29.5t27 -7q47 3 66 31.5t19 68.5q0 23 -5 48.5t-15 50t-22 47t-26 39.5q16 12 32 22t31 20q9 -14 23.5 -39t28 -55t23 -63.5t9.5 -65.5q0 -10 -2 -30t-6 -31q-13 -34 -31.5 -56.5t-40 -36t-45 -19.5 t-44.5 -6q-26 0 -60 13t-67 56q-29 -41 -65 -63.5t-80 -22.5h-7zM473 2022l-616 -247v90l616 239v-82zM475 1763l-616 -247v90l616 239v-82z"/>
    <glyph glyph-name="uni0654064B" d="M336 1635q-15 2 -32 5q-15 3 -31 4.5t-32 1.5q-18 0 -36 -3t-37 -12h1q-39 -15 -63 -49.5t-24 -73.5q0 -9 2 -21t8 -24q8 -20 23.5 -37.5t35.5 -31t43.5 -21t49.5 -7.5q12 0 24 1.5t27 7.5l-1 -1q24 7 47.5 18.5t43.5 23t35.5 21.5t22.5 16l53 -69q-42 -29 -106 -65 t-154 -86l-244 -135q-12 22 -21 39t-21 38l210 117q-53 23 -92.5 59.5t-58.5 77.5q-14 36 -14 79q0 33 10 64.5t29 58t44.5 48t57.5 34.5q51 20 105 20q39 0 72.5 -6.5t48.5 -11.5zM495 2251l-616 -247v90l616 239v-82zM497 1992l-616 -247v90l616 239v-82z"/>
    <glyph glyph-name="uni0654064E" d="M312 1651q-15 2 -32 5q-15 3 -31 4.5t-32 1.5q-18 0 -36 -3t-37 -12h1q-39 -15 -63 -49.5t-24 -73.5q0 -9 2 -21t8 -24q8 -20 23.5 -37.5t35.5 -31t43.5 -21t49.5 -7.5q12 0 24 1.5t27 7.5l-1 -1q24 7 47.5 18.5t43.5 23t35.5 21.5t22.5 16l53 -69q-42 -29 -106 -65 t-154 -86l-244 -135q-12 22 -21 39t-21 38l210 117q-53 23 -92.5 59.5t-58.5 77.5q-14 36 -14 79q0 33 10 64.5t29 58t44.5 48t57.5 34.5q51 20 105 20q39 0 72.5 -6.5t48.5 -11.5zM415 1991l-616 -247v90l616 239v-82z"/>
    <glyph glyph-name="uni0654064C" d="M288 1642q-15 2 -32 5q-15 3 -31 4.5t-32 1.5q-18 0 -36 -3t-37 -12h1q-39 -15 -63 -49.5t-24 -73.5q0 -9 2 -21t8 -24q8 -20 23.5 -37.5t35.5 -31t43.5 -21t49.5 -7.5q12 0 24 1.5t27 7.5l-1 -1q24 7 47.5 18.5t43.5 23t35.5 21.5t22.5 16l53 -69q-42 -29 -106 -65 t-154 -86l-244 -135q-12 22 -21 39t-21 38l210 117q-53 23 -92.5 59.5t-58.5 77.5q-14 36 -14 79q0 33 10 64.5t29 58t44.5 48t57.5 34.5q51 20 105 20q39 0 72.5 -6.5t48.5 -11.5zM341 2081q49 92 13 183l-2 3l-1 4q-2 6 -5 11q-6 14 -14 24q-23 30 -57 26q-50 0 -93 -51 q-30 -36 -25 -67q6 -33 36 -58q12 -9 29 -19l15 -8l16 -8l10 -5q22 -11 78 -35zM446 2044l-26 -72l-48 17l-1 -1q-16 -15 -34 -29q-36 -28 -84 -53q-35 -18 -82 -38q-71 -31 -158 -52q-13 -4 -36 -9q-8 -2 -17 -4q-6 -2 -10 -3l-42 61v2l1 2l2 8q4 10 7 18q8 26 9 33 q5 20 7 38q2 23 0 42q-4 48 -34 62q-14 6 -30 6q-24 0 -54 -15q-6 -3 -21 -13l-10 -8l-5 -3l-3 -3l-46 56q62 60 140 60q44 0 78 -24q85 -58 48 -232l-1 -4l4 1q89 28 145 51q83 35 143 78l4 2l-4 2q-14 7 -42 20l-34 16q-18 9 -32 17q-36 21 -57 44q-43 50 -39 112 q5 72 66 125q60 52 127 52h8q68 -4 113 -70q41 -59 38 -143q-1 -58 -25 -133l-1 -3z"/>
    <glyph glyph-name="uni0654064F" d="M304 1635q-15 2 -32 5q-15 3 -31 4.5t-32 1.5q-18 0 -36 -3t-37 -12h1q-39 -15 -63 -49.5t-24 -73.5q0 -9 2 -21t8 -24q8 -20 23.5 -37.5t35.5 -31t43.5 -21t49.5 -7.5q12 0 24 1.5t27 7.5l-1 -1q24 7 47.5 18.5t43.5 23t35.5 21.5t22.5 16l53 -69q-42 -29 -106 -65 t-154 -86l-244 -135q-12 22 -21 39t-21 38l210 117q-53 23 -92.5 59.5t-58.5 77.5q-14 36 -14 79q0 33 10 64.5t29 58t44.5 48t57.5 34.5q51 20 105 20q39 0 72.5 -6.5t48.5 -11.5zM87 2233q-11 -40 20 -68q12 -12 31 -22l18 -9l17 -9l11 -5l96 -42q26 57 22 118 q-3 70 -45 114q-18 19 -46 19q-39 0 -78 -32q-37 -30 -46 -64zM383 2039l-26 -68l-3 1v0l-1 1l-2 1l-3 1q-7 3 -14 5q-21 9 -27 11l-3 -3l-4 -4q-7 -5 -12 -10q-16 -14 -23 -20q-70 -57 -175 -106q-6 -3 -29 -13q-26 -11 -51 -22q-72 -30 -84 -32h-2l-26 71l3 1 q167 48 334 161l-2 1l-14 6l-15 5l-31 13q-35 16 -60 31q-68 40 -90 92q-25 59 13 126q33 59 90 90q42 23 90 23q20 0 41 -5q31 -7 58 -35q10 -10 19 -23q6 -9 12 -19q29 -54 30 -129q0 -75 -28 -136z"/>
    <glyph glyph-name="uni06540652" d="M312 1651q-15 2 -32 5q-15 3 -31 4.5t-32 1.5q-18 0 -36 -3t-37 -12h1q-39 -15 -63 -49.5t-24 -73.5q0 -9 2 -21t8 -24q8 -20 23.5 -37.5t35.5 -31t43.5 -21t49.5 -7.5q12 0 24 1.5t27 7.5l-1 -1q24 7 47.5 18.5t43.5 23t35.5 21.5t22.5 16l53 -69q-42 -29 -106 -65 t-154 -86l-244 -135q-12 22 -21 39t-21 38l210 117q-53 23 -92.5 59.5t-58.5 77.5q-14 36 -14 79q0 33 10 64.5t29 58t44.5 48t57.5 34.5q51 20 105 20q39 0 72.5 -6.5t48.5 -11.5zM181 1959q27 0 52 13t44.5 34.5t30.5 50t9 60.5q-1 25 -9.5 53.5t-26 51.5t-42 37.5 t-58.5 14.5q-31 0 -56 -15.5t-43.5 -38t-28 -50.5t-9.5 -53q0 -28 11.5 -56t30 -50.5t43.5 -37t52 -14.5zM181 2359q49 0 88.5 -22.5t68.5 -57t45.5 -77.5t18.5 -85q1 -47 -16 -90t-47 -77.5t-70.5 -55t-87.5 -20.5q-50 -1 -91 20t-70 56t-44.5 79t-15.5 88q0 42 15.5 85 t44.5 77.5t70 57t91 22.5z"/>
    <glyph glyph-name="uni0655064D" d="M335 -195q-15 2 -32 5q-15 3 -31 4.5t-32 1.5q-18 0 -36 -3t-37 -12h1q-39 -15 -63 -49.5t-24 -73.5q0 -9 2 -21t8 -24q8 -20 23.5 -37.5t35.5 -31t43.5 -21t49.5 -7.5q12 0 24 1.5t27 7.5l-1 -1q24 7 47.5 18.5t43.5 23t35.5 21.5t22.5 16l53 -69q-42 -29 -106 -65 t-154 -86l-244 -135q-12 22 -21 39t-21 38l210 117q-53 23 -92.5 59.5t-58.5 77.5q-14 36 -14 79q0 33 10 64.5t29 58t44.5 48t57.5 34.5q51 20 105 20q39 0 72.5 -6.5t48.5 -11.5zM544 -743l-616 -247v90l616 239v-82zM546 -1002l-616 -247v90l616 239v-82z"/>
    </font>
</defs>
</svg>
